<?xml version="1.0" standalone="no"?>
<!DOCTYPE svg PUBLIC "-//W3C//DTD SVG 1.1//EN" "http://www.w3.org/Graphics/SVG/1.1/DTD/svg11.dtd" >
<svg xmlns="http://www.w3.org/2000/svg">
<metadata>
This is a custom SVG webfont generated by Font Squirrel.
Copyright   : Copyright c 2003 by Bitstream Inc All Rights ReservedCopyright c 2006 by Tavmjong Bah All Rights ReservedDejaVu changes are in public domain
Foundry     : DejaVu fonts team
Foundry URL : httpdejavusourceforgenet
</metadata>
<defs>
<font id="DejaVuSansBook" horiz-adv-x="1716" >
<font-face units-per-em="2048" ascent="1556" descent="-492" />
<missing-glyph horiz-adv-x="651" />
<glyph unicode="&#xfb00;" horiz-adv-x="1411" d="M1450 1556v-153h-176q-99 0 -137.5 -40t-38.5 -144v-99h303v-143h-303v-977h-185v977h-505v-977h-185v977h-176v143h176v78q0 187 87 272.5t276 85.5h174v-153h-176q-99 0 -137.5 -40t-38.5 -144v-99h505v78q0 187 87 272.5t276 85.5h174z" />
<glyph unicode="&#xfb01;" horiz-adv-x="1290" d="M1098 1120v-1120h-185v977h-505v-977h-185v977h-176v143h176v78q0 183 86.5 270.5t265.5 87.5h185v-153h-176q-99 0 -137.5 -40t-38.5 -144v-99h690zM913 1554h185v-233h-185v233z" />
<glyph unicode="&#xfb02;" horiz-adv-x="1290" d="M586 1556h512v-1556h-185v1403h-329q-99 0 -137.5 -40t-38.5 -144v-99h303v-143h-303v-977h-185v977h-176v143h176v78q0 187 87 272.5t276 85.5z" />
<glyph unicode="&#xfb03;" horiz-adv-x="1980" d="M760 1556v-153h-176q-99 0 -137.5 -40t-38.5 -144v-99h505v78q0 187 87 272q28 28 67 47q78 39 209 39h174v-153h-176q-99 0 -137.5 -40t-38.5 -144v-99h690v-1120h-185v977h-505v-977h-185v977h-505v-977h-185v977h-176v143h176v78q0 187 87 272.5t276 85.5h174z M1603 1554h185v-233h-185v233z" />
<glyph unicode="&#xfb04;" horiz-adv-x="1980" d="M760 1556v-153h-176q-99 0 -137.5 -40t-38.5 -144v-99h505v78q0 187 87 272.5t276 85.5h512v-1556h-185v1403h-329q-99 0 -137.5 -40t-38.5 -144v-99h303v-143h-303v-977h-185v977h-505v-977h-185v977h-176v143h176v78q0 187 87 272.5t276 85.5h174z" />
<glyph unicode="&#xfedf;&#xfe82;" horiz-adv-x="1168" arabic-form="isolated" d="M959 834q0 -300 -139 -518q-55 -85 -132 -156q-205 -180 -363 -180q-106 0 -181 32v184q96 -32 181 -32q113 0 249 152l-490 1094h179l426 -959q29 43 49 98q37 137 37 321v686h184v-722zM-210 1634l160 123q103 -83 170 -104q42 -13 96 -13q58 0 99 16q107 41 195 117 v-125q-90 -64 -180 -93q-67 -22 -120 -22q-34 0 -110 17q-77 17 -145 87l-165 -128v125z" />
<glyph unicode="&#xfee0;&#xfe82;" horiz-adv-x="1222" arabic-form="final" d="M820 316q-59 -91 -132 -156q-202 -180 -363 -180q-106 0 -181 32v184q96 -32 181 -32q113 0 249 152l-490 1094h179l426 -959q29 43 49 98q37 137 37 321v686h184v-956q0 -174 34 -258q64 -158 144 -158h105v-184h-129q-175 0 -277 243q-17 41 -16 73zM-210 1634l160 123 q103 -83 170 -104q42 -13 96 -13q58 0 99 16q107 41 195 117v-125q-90 -64 -180 -93q-67 -22 -120 -22q-34 0 -110 17q-77 17 -145 87l-165 -128v125z" />
<glyph unicode="&#xfedf;&#xfe84;" horiz-adv-x="1168" arabic-form="isolated" d="M959 834q0 -300 -139 -518q-55 -85 -132 -156q-205 -180 -363 -180q-106 0 -181 32v184q96 -32 181 -32q113 0 249 152l-490 1094h179l426 -959q29 43 49 98q37 137 37 321v686h184v-722zM-27 1615l78 18q-44 20 -60 56q-16 37 -16 82q0 96 56 139q58 45 150 45 q62 0 114 -33v-100q-50 33 -114 33q-66 0 -83 -18q-29 -32 -29 -58q0 -77 94 -104q33 -10 153 19v-102l-343 -77v100z" />
<glyph unicode="&#xfee0;&#xfe84;" horiz-adv-x="1222" arabic-form="final" d="M820 316q-59 -91 -132 -156q-202 -180 -363 -180q-106 0 -181 32v184q96 -32 181 -32q113 0 249 152l-490 1094h179l426 -959q29 43 49 98q37 137 37 321v686h184v-956q0 -174 34 -258q64 -158 144 -158h105v-184h-129q-175 0 -277 243q-17 41 -16 73zM-27 1615l78 18 q-44 20 -60 56q-16 37 -16 82q0 96 56 139q58 45 150 45q62 0 114 -33v-100q-50 33 -114 33q-66 0 -83 -18q-29 -32 -29 -58q0 -77 94 -104q33 -10 153 19v-102l-343 -77v100z" />
<glyph unicode="&#xfedf;&#xfe88;" horiz-adv-x="1168" arabic-form="isolated" d="M959 834q0 -300 -139 -518q-55 -85 -132 -156q-205 -180 -363 -180q-106 0 -181 32v184q96 -32 181 -32q113 0 249 152l-490 1094h179l426 -959q29 43 49 98q37 137 37 321v686h184v-722zM23 -400l78 18q-44 20 -60 56q-16 37 -16 82q0 96 56 139q58 45 150 45 q62 0 114 -33v-100q-50 33 -114 33q-66 0 -83 -18q-29 -32 -29 -58q0 -77 94 -104q33 -10 153 19v-102l-343 -77v100z" />
<glyph unicode="&#xfee0;&#xfe88;" horiz-adv-x="1222" arabic-form="final" d="M820 316q-59 -91 -132 -156q-202 -180 -363 -180q-106 0 -181 32v184q96 -32 181 -32q113 0 249 152l-490 1094h179l426 -959q29 43 49 98q37 137 37 321v686h184v-956q0 -174 34 -258q64 -158 144 -158h105v-184h-129q-175 0 -277 243q-17 41 -16 73zM23 -400l78 18 q-44 20 -60 56q-16 37 -16 82q0 96 56 139q58 45 150 45q62 0 114 -33v-100q-50 33 -114 33q-66 0 -83 -18q-29 -32 -29 -58q0 -77 94 -104q33 -10 153 19v-102l-343 -77v100z" />
<glyph unicode="&#xfedf;&#xfe8e;" horiz-adv-x="1168" arabic-form="isolated" d="M959 834q0 -300 -139 -518q-55 -85 -132 -156q-205 -180 -363 -180q-106 0 -181 32v184q96 -32 181 -32q113 0 249 152l-490 1094h179l426 -959q29 43 49 98q37 137 37 321v686h184v-722z" />
<glyph unicode="&#xfee0;&#xfe8e;" horiz-adv-x="1222" arabic-form="final" d="M820 316q-59 -91 -132 -156q-202 -180 -363 -180q-106 0 -181 32v184q96 -32 181 -32q113 0 249 152l-490 1094h179l426 -959q29 43 49 98q37 137 37 321v686h184v-956q0 -174 34 -258q64 -158 144 -158h105v-184h-129q-175 0 -277 243q-17 41 -16 73z" />
<glyph unicode="&#x66e;" horiz-adv-x="570" d="M299 86q-72 -86 -229 -86h-90v184h35q99 0 143 44q49 49 49 155v217h184v-217q0 -187 -92 -297z" />
<glyph unicode="&#x66e;" horiz-adv-x="618" d="M299 86q-77 -86 -229 -86h-90v184h35q99 0 143 44q49 49 49 155v217h184v-217q0 -106 49 -155q44 -44 143 -44h55v-184h-110q-150 0 -229 86z" />
<glyph unicode="&#x66e;" horiz-adv-x="2011" d="M1775 504q0 -208 70 -267q63 -53 126 -53h60v-184h-102q-116 0 -187 73q-80 83 -104 149q-155 -131 -388 -184q-259 -58 -470 -58q-196 0 -320 38q-329 101 -330 365q-1 138 63 230h184q-65 -94 -65 -230q0 -125 203 -192q104 -34 255 -34q260 2 450 57q199 58 322 167 q59 52 59 171q0 62 -29 117h184q19 -75 19 -165z" />
<glyph unicode="&#x66f;" horiz-adv-x="979" d="M598 537q41 43 41 120q0 59 -66 110q-31 25 -75 24q-52 -1 -92 -43q-40 -41 -41 -92q0 -80 55 -118q40 -25 82 -25q72 0 96 24zM-20 184h241q84 0 235 23q79 12 139 105q31 48 46 98q-63 -55 -160 -57q-130 -2 -208 67q-98 87 -98 216q0 52 8 96q23 148 173 217 q78 36 154 36q90 0 156 -50q96 -72 142 -174q23 -51 23 -191q0 -208 -78 -351q-74 -136 -198 -180q-109 -39 -254 -39h-321v184z" />
<glyph unicode="&#x66f;" horiz-adv-x="1036" d="M614 762q183 -80 207 -230q8 -50 8 -92q0 -73 -21 -122q-29 -67 -65 -117q39 -17 186 -17h127v-184h-217q-136 0 -321 57q-185 -57 -321 -57h-217v184h127q147 0 186 17q-29 40 -65 117q-21 46 -21 122q0 44 8 92q23 143 208 230q30 14 95 14q63 0 96 -14zM518 592 q-15 0 -33 -10q-56 -32 -80 -85q-10 -21 -10 -50q0 -43 24 -96q31 -68 99 -90q63 21 99 90q25 50 25 96q0 24 -11 50q-23 52 -80 85q-19 10 -33 10z" />
<glyph unicode="&#x66f;" horiz-adv-x="1708" d="M1208 10q-66 5 -112 18q-121 35 -178 78q-147 109 -147 294q0 61 6 87q40 165 187 234q41 19 128 19q112 0 168 -50q99 -88 149 -233q20 -58 26 -272q26 -1 30 -1h263v-184h-268h-48q-45 -122 -106 -192q-128 -145 -286 -223q-175 -86 -380 -85q-370 2 -464 192 q-69 138 -69 263q0 166 62 262h184q-62 -107 -62 -262q0 -76 27 -134q60 -130 322 -130q140 0 290 68q213 98 278 251zM1251 203q4 122 -18 209q-19 75 -66 110q-34 25 -73 25q-34 0 -55 -10q-51 -27 -72 -85q-10 -30 -10 -55q0 -60 57 -104q76 -59 176 -79q47 -9 61 -11z " />
<glyph unicode="&#x67c;" horiz-adv-x="570" d="M299 86q-72 -86 -229 -86h-90v184h35q99 0 143 44q49 49 49 155v217h184v-217q0 -187 -92 -297zM349 1000h150v-150h-150v150zM99 1000h150v-150h-150v150zM396 -48q0 40 -28 68q-28 29 -69 29t-69 -28t-28 -69q0 -42 28 -70q28 -27 69 -27t69 28t28 69zM518 -48 q0 -92 -63 -156q-64 -64 -156 -64t-155 64q-64 64 -64 156t64 156q63 63 155 63t156 -63q63 -64 63 -156z" />
<glyph unicode="&#x67c;" horiz-adv-x="618" d="M299 86q-77 -86 -229 -86h-90v184h35q99 0 143 44q49 49 49 155v217h184v-217q0 -106 49 -155q44 -44 143 -44h55v-184h-110q-150 0 -229 86zM349 1000h150v-150h-150v150zM99 1000h150v-150h-150v150zM396 -48q0 40 -28 68q-28 29 -69 29t-69 -28t-28 -69q0 -42 28 -70 q28 -27 69 -27t69 28t28 69zM518 -48q0 -92 -63 -156q-64 -64 -156 -64t-155 64q-64 64 -64 156t64 156q63 63 155 63t156 -63q63 -64 63 -156z" />
<glyph unicode="&#x67c;" horiz-adv-x="2011" d="M950 800h150v-150h-150v150zM700 800h150v-150h-150v150zM997 -148q0 40 -28 68q-28 29 -69 29t-69 -28t-28 -69q0 -42 28 -70q28 -27 69 -27t69 28t28 69zM1119 -148q0 -92 -63 -156q-64 -64 -156 -64t-155 64q-64 64 -64 156t64 156q63 63 155 63t156 -63 q63 -64 63 -156zM1775 504q0 -208 70 -267q63 -53 126 -53h60v-184h-102q-116 0 -187 73q-80 83 -104 149q-155 -131 -388 -184q-259 -58 -470 -58q-196 0 -320 38q-329 101 -330 365q-1 138 63 230h184q-65 -94 -65 -230q0 -125 203 -192q104 -34 255 -34q260 2 450 57 q199 58 322 167q59 52 59 171q0 62 -29 117h184q19 -75 19 -165z" />
<glyph unicode="&#x67d;" horiz-adv-x="570" d="M299 86q-72 -86 -229 -86h-90v184h35q99 0 143 44q49 49 49 155v217h184v-217q0 -187 -92 -297zM224 1000h150v-150h-150v150zM349 1250h150v-150h-150v150zM99 1250h150v-150h-150v150z" />
<glyph unicode="&#x67d;" horiz-adv-x="618" d="M299 86q-77 -86 -229 -86h-90v184h35q99 0 143 44q49 49 49 155v217h184v-217q0 -106 49 -155q44 -44 143 -44h55v-184h-110q-150 0 -229 86zM224 1000h150v-150h-150v150zM349 1250h150v-150h-150v150zM99 1250h150v-150h-150v150z" />
<glyph unicode="&#x67d;" horiz-adv-x="2011" d="M825 700h150v-150h-150v150zM950 950h150v-150h-150v150zM700 950h150v-150h-150v150zM1775 504q0 -208 70 -267q63 -53 126 -53h60v-184h-102q-116 0 -187 73q-80 83 -104 149q-155 -131 -388 -184q-259 -58 -470 -58q-196 0 -320 38q-329 101 -330 365q-1 138 63 230 h184q-65 -94 -65 -230q0 -125 203 -192q104 -34 255 -34q260 2 450 57q199 58 322 167q59 52 59 171q0 62 -29 117h184q19 -75 19 -165z" />
<glyph unicode="&#x681;" horiz-adv-x="1266" d="M851 541q-83 23 -186 46q-85 19 -265 35q-82 7 -243 1v184q72 7 147 8q162 0 334 -35q258 -52 478 -150v-154q-76 -24 -164 -76q-166 -98 -240 -164q-145 -129 -220 -156q-221 -80 -384 -80h-128v184h100q227 0 356 72q104 58 220 164q94 86 195 121zM423 1015l78 18 q-44 20 -60 56q-16 37 -16 82q0 96 56 139q58 45 150 45q62 0 114 -33v-100q-50 33 -114 33q-66 0 -83 -18q-29 -32 -29 -58q0 -77 94 -104q33 -10 153 19v-102l-343 -77v100z" />
<glyph unicode="&#x681;" horiz-adv-x="1322" d="M638 780q258 -52 478 -150v-154q-65 -20 -138 -61q50 -78 80 -112q104 -119 218 -119h66v-184h-86q-209 0 -335 168q-40 54 -99 151q-69 -46 -110 -83q-145 -129 -220 -156q-221 -80 -384 -80h-128v184h100q227 0 356 72q104 58 220 164q94 86 195 121q-83 23 -186 46 q-85 19 -265 35q-82 7 -243 1v184q72 7 147 8q162 0 334 -35zM423 1015l78 18q-44 20 -60 56q-16 37 -16 82q0 96 56 139q58 45 150 45q62 0 114 -33v-100q-50 33 -114 33q-66 0 -83 -18q-29 -32 -29 -58q0 -77 94 -104q33 -10 153 19v-102l-343 -77v100z" />
<glyph unicode="&#x681;" horiz-adv-x="1322" d="M1302 184h40v-184h-49q-129 0 -252 150q-82 100 -143 256q-6 15 -79 193q-114 -24 -212 -104q-224 -183 -224 -435q0 -137 74 -231q129 -164 458 -164q193 0 405 118v-184q-150 -99 -400 -99q-418 0 -587 194q-131 150 -131 374q0 258 212 481q96 101 233 153h-25 q-95 0 -235 -19q-135 -19 -230 -60v184q272 63 465 63q294 0 494 -54v-154q-109 0 -140 -13l29 -91q51 -160 123 -255q90 -119 174 -119zM473 1115l78 18q-44 20 -60 56q-16 37 -16 82q0 96 56 139q58 45 150 45q62 0 114 -33v-100q-50 33 -114 33q-66 0 -83 -18 q-29 -32 -29 -58q0 -77 94 -104q33 -10 153 19v-102l-343 -77v100z" />
<glyph unicode="&#x682;" horiz-adv-x="1266" d="M851 541q-83 23 -186 46q-85 19 -265 35q-82 7 -243 1v184q72 7 147 8q162 0 334 -35q258 -52 478 -150v-154q-76 -24 -164 -76q-166 -98 -240 -164q-145 -129 -220 -156q-221 -80 -384 -80h-128v184h100q227 0 356 72q104 58 220 164q94 86 195 121zM525 1100h150v-150 h-150v150zM525 1350h150v-150h-150v150z" />
<glyph unicode="&#x682;" horiz-adv-x="1322" d="M638 780q258 -52 478 -150v-154q-65 -20 -138 -61q50 -78 80 -112q104 -119 218 -119h66v-184h-86q-209 0 -335 168q-40 54 -99 151q-69 -46 -110 -83q-145 -129 -220 -156q-221 -80 -384 -80h-128v184h100q227 0 356 72q104 58 220 164q94 86 195 121q-83 23 -186 46 q-85 19 -265 35q-82 7 -243 1v184q72 7 147 8q162 0 334 -35zM525 1100h150v-150h-150v150zM525 1350h150v-150h-150v150z" />
<glyph unicode="&#x682;" horiz-adv-x="1322" d="M1302 184h40v-184h-49q-129 0 -252 150q-82 100 -143 256q-6 15 -79 193q-114 -24 -212 -104q-224 -183 -224 -435q0 -137 74 -231q129 -164 458 -164q193 0 405 118v-184q-150 -99 -400 -99q-418 0 -587 194q-131 150 -131 374q0 258 212 481q96 101 233 153h-25 q-95 0 -235 -19q-135 -19 -230 -60v184q272 63 465 63q294 0 494 -54v-154q-109 0 -140 -13l29 -91q51 -160 123 -255q90 -119 174 -119zM575 1200h150v-150h-150v150zM575 1450h150v-150h-150v150z" />
<glyph unicode="&#x685;" horiz-adv-x="1266" d="M851 541q-83 23 -186 46q-85 19 -265 35q-82 7 -243 1v184q72 7 147 8q162 0 334 -35q258 -52 478 -150v-154q-76 -24 -164 -76q-166 -98 -240 -164q-145 -129 -220 -156q-221 -80 -384 -80h-128v184h100q227 0 356 72q104 58 220 164q94 86 195 121zM525 1350h150v-150 h-150v150zM650 1100h150v-150h-150v150zM400 1100h150v-150h-150v150z" />
<glyph unicode="&#x685;" horiz-adv-x="1322" d="M638 780q258 -52 478 -150v-154q-65 -20 -138 -61q50 -78 80 -112q104 -119 218 -119h66v-184h-86q-209 0 -335 168q-40 54 -99 151q-69 -46 -110 -83q-145 -129 -220 -156q-221 -80 -384 -80h-128v184h100q227 0 356 72q104 58 220 164q94 86 195 121q-83 23 -186 46 q-85 19 -265 35q-82 7 -243 1v184q72 7 147 8q162 0 334 -35zM525 1350h150v-150h-150v150zM650 1100h150v-150h-150v150zM400 1100h150v-150h-150v150z" />
<glyph unicode="&#x685;" horiz-adv-x="1322" d="M1302 184h40v-184h-49q-129 0 -252 150q-82 100 -143 256q-6 15 -79 193q-114 -24 -212 -104q-224 -183 -224 -435q0 -137 74 -231q129 -164 458 -164q193 0 405 118v-184q-150 -99 -400 -99q-418 0 -587 194q-131 150 -131 374q0 258 212 481q96 101 233 153h-25 q-95 0 -235 -19q-135 -19 -230 -60v184q272 63 465 63q294 0 494 -54v-154q-109 0 -140 -13l29 -91q51 -160 123 -255q90 -119 174 -119zM575 1450h150v-150h-150v150zM700 1200h150v-150h-150v150zM450 1200h150v-150h-150v150z" />
<glyph unicode="&#x689;" horiz-adv-x="1075" d="M597 -148q0 40 -28 68q-28 29 -69 29t-69 -28t-28 -69q0 -42 28 -70q28 -27 69 -27t69 28t28 69zM719 -148q0 -92 -63 -156q-64 -64 -156 -64t-155 64q-64 64 -64 156t64 156q63 63 155 63t156 -63q63 -64 63 -156zM546 575q-57 122 -239 275h227q97 -78 179 -215 q81 -134 81 -251q0 -73 83 -156q44 -44 143 -44h75v-184h-130q-147 0 -244 130q-93 -128 -300 -161q-46 -7 -91 -7q-102 0 -205 38v184q115 -42 199 -42q33 0 67 9q172 49 207 161q8 27 8 69q0 68 -60 194z" />
<glyph unicode="&#x68a;" horiz-adv-x="1075" d="M425 -200h150v-150h-150v150zM546 575q-57 122 -239 275h227q97 -78 179 -215q81 -134 81 -251q0 -73 83 -156q44 -44 143 -44h75v-184h-130q-147 0 -244 130q-93 -128 -300 -161q-46 -7 -91 -7q-102 0 -205 38v184q115 -42 199 -42q33 0 67 9q172 49 207 161q8 27 8 69 q0 68 -60 194z" />
<glyph unicode="&#x68b;" horiz-adv-x="1075" d="M399 1128h55q78 0 100 13q53 33 53 54q0 32 -30 48q-1 1 -72 -27q-52 -21 -106 -88zM477 1027h-175h-112v101h81v399h102v-321q36 73 140 113q63 24 133 -2q65 -25 65 -107q0 -91 -64 -141q-54 -42 -170 -42zM425 -200h150v-150h-150v150zM546 575q-57 122 -239 275h227 q97 -78 179 -215q81 -134 81 -251q0 -73 83 -156q44 -44 143 -44h75v-184h-130q-147 0 -244 130q-93 -128 -300 -161q-46 -7 -91 -7q-102 0 -205 38v184q115 -42 199 -42q33 0 67 9q172 49 207 161q8 27 8 69q0 68 -60 194z" />
<glyph unicode="&#x68f;" horiz-adv-x="1075" d="M375 1150h150v-150h-150v150zM500 1400h150v-150h-150v150zM250 1400h150v-150h-150v150zM546 575q-57 122 -239 275h227q97 -78 179 -215q81 -134 81 -251q0 -73 83 -156q44 -44 143 -44h75v-184h-130q-147 0 -244 130q-93 -128 -300 -161q-46 -7 -91 -7q-102 0 -205 38 v184q115 -42 199 -42q33 0 67 9q172 49 207 161q8 27 8 69q0 68 -60 194z" />
<glyph unicode="&#x690;" horiz-adv-x="1075" d="M500 1200h150v-150h-150v150zM500 1450h150v-150h-150v150zM250 1200h150v-150h-150v150zM250 1450h150v-150h-150v150zM546 575q-57 122 -239 275h227q97 -78 179 -215q81 -134 81 -251q0 -73 83 -156q44 -44 143 -44h75v-184h-130q-147 0 -244 130q-93 -128 -300 -161 q-46 -7 -91 -7q-102 0 -205 38v184q115 -42 199 -42q33 0 67 9q172 49 207 161q8 27 8 69q0 68 -60 194z" />
<glyph unicode="&#x692;" horiz-adv-x="1130" d="M626 812l-195 326h139l130 -195l130 195h139l-195 -326h-148zM632 550h184q30 -112 33 -142q10 -103 83 -180q42 -44 143 -44h75v-184h-130q-130 0 -180 62q-68 -278 -319 -411q-284 -151 -606 -151v184q304 0 507 128q218 138 253 346q10 58 10 130q0 126 -53 262z" />
<glyph unicode="&#x693;" horiz-adv-x="1130" d="M916 -280q0 40 -28 68q-28 29 -69 29t-69 -28t-28 -69q0 -42 28 -70q28 -27 69 -27t69 28t28 69zM1038 -280q0 -92 -63 -156q-64 -64 -156 -64t-155 64q-64 64 -64 156t64 156q63 63 155 63t156 -63q63 -64 63 -156zM632 550h184q30 -112 33 -142q10 -103 83 -180 q42 -44 143 -44h75v-184h-130q-130 0 -180 62q-68 -278 -319 -411q-284 -151 -606 -151v184q304 0 507 128q218 138 253 346q10 58 10 130q0 126 -53 262z" />
<glyph unicode="&#x694;" horiz-adv-x="1130" d="M820 -290h150v-150h-150v150zM632 550h184q30 -112 33 -142q10 -103 83 -180q42 -44 143 -44h75v-184h-130q-130 0 -180 62q-68 -278 -319 -411q-284 -151 -606 -151v184q304 0 507 128q218 138 253 346q10 58 10 130q0 126 -53 262z" />
<glyph unicode="&#x695;" horiz-adv-x="1250" d="M632 550h184q30 -112 33 -142q10 -103 83 -180q42 -44 143 -44h195v-184h-250q-130 0 -180 62q-68 -278 -319 -411q-284 -151 -606 -151v184q304 0 507 128q218 138 253 346q10 58 10 130q0 126 -53 262zM956 -500l-195 326h139l130 -195l130 195h139l-195 -326h-148z " />
<glyph unicode="&#x696;" horiz-adv-x="1130" d="M180 190h150v-150h-150v150zM820 -290h150v-150h-150v150zM632 550h184q30 -112 33 -142q10 -103 83 -180q42 -44 143 -44h75v-184h-130q-130 0 -180 62q-68 -278 -319 -411q-284 -151 -606 -151v184q304 0 507 128q218 138 253 346q10 58 10 130q0 126 -53 262z" />
<glyph unicode="&#x697;" horiz-adv-x="1130" d="M750 950h150v-150h-150v150zM500 950h150v-150h-150v150zM632 550h184q30 -112 33 -142q10 -103 83 -180q42 -44 143 -44h75v-184h-130q-130 0 -180 62q-68 -278 -319 -411q-284 -151 -606 -151v184q304 0 507 128q218 138 253 346q10 58 10 130q0 126 -53 262z" />
<glyph unicode="&#x699;" horiz-adv-x="1130" d="M750 950h150v-150h-150v150zM750 1200h150v-150h-150v150zM500 950h150v-150h-150v150zM500 1200h150v-150h-150v150zM632 550h184q30 -112 33 -142q10 -103 83 -180q42 -44 143 -44h75v-184h-130q-130 0 -180 62q-68 -278 -319 -411q-284 -151 -606 -151v184 q304 0 507 128q218 138 253 346q10 58 10 130q0 126 -53 262z" />
<glyph unicode="&#x69a;" d="M384 138q-43 -59 -99 -92q-76 -46 -175 -46h-130v184h75q99 0 143 44q80 80 80 180v192h184v-156q0 -64 44 -164q43 -99 147 -99q109 0 153 122q37 103 37 297h184q0 -205 19 -255q64 -170 174 -169q142 2 142 280v294h184v-342q0 -199 -92 -312q-75 -92 -177 -116 q-37 -9 -72 -9q-63 0 -118 25q-137 61 -155 193q-48 -156 -144 -189q-68 -24 -133 -24q-98 0 -170 49q-60 40 -101 113zM775 1000h150v-150h-150v150zM925 -200h150v-150h-150v150z" />
<glyph unicode="&#x69a;" horiz-adv-x="1827" d="M1277 -20q-37 -9 -72 -9q-63 0 -118 25q-137 61 -155 193q-48 -156 -144 -189q-68 -24 -133 -24q-98 0 -170 49q-60 40 -101 113q-43 -59 -99 -92q-76 -46 -175 -46h-130v184h75q99 0 143 44q80 80 80 180v192h184v-156q0 -64 44 -164q43 -99 147 -99q109 0 153 122 q37 103 37 297h184q0 -205 19 -255q64 -170 174 -169q142 2 142 280v294h184v-342q0 -97 83 -180q44 -44 143 -44h75v-184h-130q-145 0 -263 96q-68 -90 -177 -116zM775 1000h150v-150h-150v150zM925 -200h150v-150h-150v150z" />
<glyph unicode="&#x69a;" horiz-adv-x="2611" d="M1464 181q78 -2 126 122q37 95 37 297h184q0 -205 19 -255q64 -169 174 -169q142 0 142 280v294h184v-342q0 -97 83 -180q44 -44 143 -44h75v-184h-130q-145 0 -263 96q-68 -91 -177 -116q-37 -9 -69 -9q-73 0 -121 25q-138 70 -155 193q-49 -159 -144 -189 q-64 -20 -120 -18q-137 2 -176 62q-24 -179 -108 -286q-133 -170 -326 -232q-80 -26 -200 -26q-128 1 -237 29q-275 71 -275 399q0 246 105 426h184q-108 -206 -107 -426q1 -179 148 -217q95 -24 176 -24q98 0 193 37q121 48 215 206q64 108 63 250q-1 125 -17 186l-64 234 h184l36 -156q16 -74 44 -134q58 -126 174 -129zM1375 950h150v-150h-150v150zM1525 -200h150v-150h-150v150z" />
<glyph unicode="&#x69b;" d="M384 138q-43 -59 -99 -92q-76 -46 -175 -46h-130v184h75q99 0 143 44q80 80 80 180v192h184v-156q0 -64 44 -164q43 -99 147 -99q109 0 153 122q37 103 37 297h184q0 -205 19 -255q64 -170 174 -169q142 2 142 280v294h184v-342q0 -199 -92 -312q-75 -92 -177 -116 q-37 -9 -72 -9q-63 0 -118 25q-137 61 -155 193q-48 -156 -144 -189q-68 -24 -133 -24q-98 0 -170 49q-60 40 -101 113zM925 -350h150v-150h-150v150zM1050 -100h150v-150h-150v150zM800 -100h150v-150h-150v150z" />
<glyph unicode="&#x69b;" horiz-adv-x="1827" d="M1277 -20q-37 -9 -72 -9q-63 0 -118 25q-137 61 -155 193q-48 -156 -144 -189q-68 -24 -133 -24q-98 0 -170 49q-60 40 -101 113q-43 -59 -99 -92q-76 -46 -175 -46h-130v184h75q99 0 143 44q80 80 80 180v192h184v-156q0 -64 44 -164q43 -99 147 -99q109 0 153 122 q37 103 37 297h184q0 -205 19 -255q64 -170 174 -169q142 2 142 280v294h184v-342q0 -97 83 -180q44 -44 143 -44h75v-184h-130q-145 0 -263 96q-68 -90 -177 -116zM925 -350h150v-150h-150v150zM1050 -100h150v-150h-150v150zM800 -100h150v-150h-150v150z" />
<glyph unicode="&#x69b;" horiz-adv-x="2611" d="M1464 181q78 -2 126 122q37 95 37 297h184q0 -205 19 -255q64 -169 174 -169q142 0 142 280v294h184v-342q0 -97 83 -180q44 -44 143 -44h75v-184h-130q-145 0 -263 96q-68 -91 -177 -116q-37 -9 -69 -9q-73 0 -121 25q-138 70 -155 193q-49 -159 -144 -189 q-64 -20 -120 -18q-137 2 -176 62q-24 -179 -108 -286q-133 -170 -326 -232q-80 -26 -200 -26q-128 1 -237 29q-275 71 -275 399q0 246 105 426h184q-108 -206 -107 -426q1 -179 148 -217q95 -24 176 -24q98 0 193 37q121 48 215 206q64 108 63 250q-1 125 -17 186l-64 234 h184l36 -156q16 -74 44 -134q58 -126 174 -129zM1525 -350h150v-150h-150v150zM1650 -100h150v-150h-150v150zM1400 -100h150v-150h-150v150z" />
<glyph unicode="&#x69c;" d="M384 138q-43 -59 -99 -92q-76 -46 -175 -46h-130v184h75q99 0 143 44q80 80 80 180v192h184v-156q0 -64 44 -164q43 -99 147 -99q109 0 153 122q37 103 37 297h184q0 -205 19 -255q64 -170 174 -169q142 2 142 280v294h184v-342q0 -199 -92 -312q-75 -92 -177 -116 q-37 -9 -72 -9q-63 0 -118 25q-137 61 -155 193q-48 -156 -144 -189q-68 -24 -133 -24q-98 0 -170 49q-60 40 -101 113zM775 1200h150v-150h-150v150zM900 950h150v-150h-150v150zM650 950h150v-150h-150v150zM925 -350h150v-150h-150v150zM1050 -100h150v-150h-150v150z M800 -100h150v-150h-150v150z" />
<glyph unicode="&#x69c;" horiz-adv-x="1827" d="M1277 -20q-37 -9 -72 -9q-63 0 -118 25q-137 61 -155 193q-48 -156 -144 -189q-68 -24 -133 -24q-98 0 -170 49q-60 40 -101 113q-43 -59 -99 -92q-76 -46 -175 -46h-130v184h75q99 0 143 44q80 80 80 180v192h184v-156q0 -64 44 -164q43 -99 147 -99q109 0 153 122 q37 103 37 297h184q0 -205 19 -255q64 -170 174 -169q142 2 142 280v294h184v-342q0 -97 83 -180q44 -44 143 -44h75v-184h-130q-145 0 -263 96q-68 -90 -177 -116zM775 1200h150v-150h-150v150zM900 950h150v-150h-150v150zM650 950h150v-150h-150v150zM925 -350h150v-150 h-150v150zM1050 -100h150v-150h-150v150zM800 -100h150v-150h-150v150z" />
<glyph unicode="&#x69c;" horiz-adv-x="2611" d="M1464 181q78 -2 126 122q37 95 37 297h184q0 -205 19 -255q64 -169 174 -169q142 0 142 280v294h184v-342q0 -97 83 -180q44 -44 143 -44h75v-184h-130q-145 0 -263 96q-68 -91 -177 -116q-37 -9 -69 -9q-73 0 -121 25q-138 70 -155 193q-49 -159 -144 -189 q-64 -20 -120 -18q-137 2 -176 62q-24 -179 -108 -286q-133 -170 -326 -232q-80 -26 -200 -26q-128 1 -237 29q-275 71 -275 399q0 246 105 426h184q-108 -206 -107 -426q1 -179 148 -217q95 -24 176 -24q98 0 193 37q121 48 215 206q64 108 63 250q-1 125 -17 186l-64 234 h184l36 -156q16 -74 44 -134q58 -126 174 -129zM1375 1200h150v-150h-150v150zM1500 950h150v-150h-150v150zM1250 950h150v-150h-150v150zM1525 -350h150v-150h-150v150zM1650 -100h150v-150h-150v150zM1400 -100h150v-150h-150v150z" />
<glyph unicode="&#x69d;" horiz-adv-x="1739" d="M976 486q-168 -108 -313 -302h187q237 0 366 63q186 91 186 161q0 135 -139 154q-37 5 -85 5q-76 0 -202 -81zM916 0h-276q-74 0 -152 42q-65 35 -104 96q-102 -138 -274 -138h-130v184h75q99 0 143 44q80 80 80 180v114h184v-78q0 -24 9 -64t54 -90q101 134 196 218 q153 137 297 200q75 33 160 33q115 0 222 -39q186 -68 186 -304q0 -169 -184 -278q-202 -120 -486 -120zM850 -200h150v-150h-150v150zM600 -200h150v-150h-150v150z" />
<glyph unicode="&#x69d;" horiz-adv-x="1776" d="M920 0h-280q-74 0 -152 42q-65 35 -104 96q-102 -138 -274 -138h-130v184h75q99 0 143 44q80 80 80 180v114h184v-78q0 -24 9 -64t54 -90q101 134 196 218q153 137 297 200q75 33 160 33q113 0 222 -39q190 -68 190 -304q0 -75 -42 -147q14 -12 30 -23q61 -44 143 -44h75 v-184h-130q-131 0 -234 92l-28 26q-204 -118 -484 -118zM976 486q-168 -108 -313 -302h187q237 0 366 63q186 91 186 161q0 135 -139 154q-37 5 -85 5q-76 0 -202 -81zM850 -200h150v-150h-150v150zM600 -200h150v-150h-150v150z" />
<glyph unicode="&#x69d;" horiz-adv-x="2509" d="M1653 0h-276q-38 0 -90 30q-45 26 -45 42q0 -186 -74 -314q-88 -155 -326 -232q-80 -26 -200 -26q-128 1 -237 29q-275 71 -275 399q0 246 105 426h184q-108 -206 -107 -426q1 -179 148 -217q95 -24 176 -24q102 0 193 37q162 68 205 206q33 108 33 235q0 147 -39 285 h171q-1 -15 13 -70q10 -40 50 -90q115 146 238 254q108 94 255 164q72 34 160 33q125 -2 222 -39q186 -71 186 -304q0 -77 -42 -147q14 -12 30 -23q61 -44 143 -44h75v-184h-130q-131 0 -234 92l-28 26q-204 -118 -484 -118zM1915 567q-76 0 -202 -81q-168 -108 -313 -302 h187q237 0 366 63q187 91 186 161q-2 135 -139 154q-37 5 -85 5zM1650 -200h150v-150h-150v150zM1400 -200h150v-150h-150v150z" />
<glyph unicode="&#x69e;" horiz-adv-x="1739" d="M976 486q-168 -108 -313 -302h187q237 0 366 63q186 91 186 161q0 135 -139 154q-37 5 -85 5q-76 0 -202 -81zM916 0h-276q-74 0 -152 42q-65 35 -104 96q-102 -138 -274 -138h-130v184h75q99 0 143 44q80 80 80 180v114h184v-78q0 -24 9 -64t54 -90q101 134 196 218 q153 137 297 200q75 33 160 33q115 0 222 -39q186 -68 186 -304q0 -169 -184 -278q-202 -120 -486 -120zM525 1200h150v-150h-150v150zM650 950h150v-150h-150v150zM400 950h150v-150h-150v150z" />
<glyph unicode="&#x69e;" horiz-adv-x="1776" d="M920 0h-280q-74 0 -152 42q-65 35 -104 96q-102 -138 -274 -138h-130v184h75q99 0 143 44q80 80 80 180v114h184v-78q0 -24 9 -64t54 -90q101 134 196 218q153 137 297 200q75 33 160 33q113 0 222 -39q190 -68 190 -304q0 -75 -42 -147q14 -12 30 -23q61 -44 143 -44h75 v-184h-130q-131 0 -234 92l-28 26q-204 -118 -484 -118zM976 486q-168 -108 -313 -302h187q237 0 366 63q186 91 186 161q0 135 -139 154q-37 5 -85 5q-76 0 -202 -81zM525 1200h150v-150h-150v150zM650 950h150v-150h-150v150zM400 950h150v-150h-150v150z" />
<glyph unicode="&#x69e;" horiz-adv-x="2509" d="M1653 0h-276q-38 0 -90 30q-45 26 -45 42q0 -186 -74 -314q-88 -155 -326 -232q-80 -26 -200 -26q-128 1 -237 29q-275 71 -275 399q0 246 105 426h184q-108 -206 -107 -426q1 -179 148 -217q95 -24 176 -24q102 0 193 37q162 68 205 206q33 108 33 235q0 147 -39 285 h171q-1 -15 13 -70q10 -40 50 -90q115 146 238 254q108 94 255 164q72 34 160 33q125 -2 222 -39q186 -71 186 -304q0 -77 -42 -147q14 -12 30 -23q61 -44 143 -44h75v-184h-130q-131 0 -234 92l-28 26q-204 -118 -484 -118zM1915 567q-76 0 -202 -81q-168 -108 -313 -302 h187q237 0 366 63q187 91 186 161q-2 135 -139 154q-37 5 -85 5zM1275 1200h150v-150h-150v150zM1400 950h150v-150h-150v150zM1150 950h150v-150h-150v150z" />
<glyph unicode="&#x69f;" horiz-adv-x="1630" d="M569 184h187q237 0 366 63q187 93 186 161q-2 135 -139 154q-37 5 -85 5q-80 0 -202 -81q-177 -120 -313 -302zM822 0h-575h-267v184h267v1372h184v-1266q217 319 493 418q92 33 160 33q117 0 222 -39q186 -69 186 -304q0 -169 -184 -278q-202 -120 -486 -120zM761 1250 h150v-150h-150v150zM886 1000h150v-150h-150v150zM636 1000h150v-150h-150v150z" />
<glyph unicode="&#x69f;" horiz-adv-x="1680" d="M824 0h-577h-267v184h267v1372h184v-1266q217 319 493 418q92 33 160 33q117 0 222 -39q188 -69 188 -304q0 -77 -42 -147q14 -12 30 -23q61 -44 143 -44h75v-184h-130q-131 0 -234 92l-28 26q-204 -118 -484 -118zM569 184h187q237 0 366 63q187 93 186 161 q-2 135 -139 154q-37 5 -85 5q-80 0 -202 -81q-177 -120 -313 -302zM761 1250h150v-150h-150v150zM886 1000h150v-150h-150v150zM636 1000h150v-150h-150v150z" />
<glyph unicode="&#x69f;" horiz-adv-x="1944" d="M1088 0h-577h-367v184h367v1372h184v-1266q217 319 493 418q92 33 160 33q117 0 222 -39q188 -69 188 -304q0 -77 -42 -147q14 -12 30 -23q61 -44 143 -44h75v-184h-130q-131 0 -234 92l-28 26q-204 -118 -484 -118zM833 184h187q237 0 366 63q187 93 186 161 q-2 135 -139 154q-37 5 -85 5q-80 0 -202 -81q-177 -120 -313 -302zM1025 1250h150v-150h-150v150zM1150 1000h150v-150h-150v150zM900 1000h150v-150h-150v150z" />
<glyph unicode="&#x6a0;" horiz-adv-x="1222" d="M60 184q161 0 363 93q-75 24 -127 83q-88 100 -88 240q0 264 204 389q125 77 376 77v-169q-218 0 -311 -68.5t-93 -196t62 -179.5q83 -70 153 -70q55 0 129 33l288 129v-184l-420 -197q-350 -164 -528 -164h-88v184h80zM425 1600h150v-150h-150v150zM550 1350h150v-150 h-150v150zM300 1350h150v-150h-150v150z" />
<glyph unicode="&#x6a0;" horiz-adv-x="988" d="M494 185q-194 -185 -396 -185h-118v184h96q107 0 173 40q59 36 99 75q-97 85 -165 175q-30 39 -30 84q0 31 13 72q16 55 120 107q89 45 208 45t208 -45q104 -52 120 -107q13 -41 13 -72q0 -45 -30 -84q-77 -98 -165 -175q31 -31 99 -75q61 -40 173 -40h96v-184h-118 q-202 0 -396 185zM494 597q-26 0 -56 -7q-47 -12 -47 -44q0 -29 103 -124q103 95 103 124q0 32 -47 44q-30 7 -56 7zM425 1350h150v-150h-150v150zM550 1100h150v-150h-150v150zM300 1100h150v-150h-150v150z" />
<glyph unicode="&#x6a0;" horiz-adv-x="1090" d="M1202 -401q-152 -99 -409 -99q-421 0 -578 188q-98 122 -98 323t187 341q-61 50 -95 108t-34 100q0 110 125 174q97 48 216 48t214 -48q127 -64 127 -176q0 -91 -91 -158q-57 -43 -151 -75q68 -64 159 -102.5t176 -38.5h160v-184h-144q-266 0 -514 228 q-154 -129 -154 -236q0 -108 41 -169q107 -158 458 -158q193 0 405 118v-184zM483 445q136 56 136 104t-103 48t-103 -51q0 -36 70 -101zM425 1350h150v-150h-150v150zM550 1100h150v-150h-150v150zM300 1100h150v-150h-150v150z" />
<glyph unicode="&#x6a1;" horiz-adv-x="979" d="M598 537q41 43 41 120q0 59 -66 110q-31 25 -75 24q-52 -1 -92 -43q-40 -41 -41 -92q0 -80 55 -118q40 -25 82 -25q72 0 96 24zM-20 184h241q84 0 235 23q79 12 139 105q31 48 46 98q-63 -55 -160 -57q-130 -2 -208 67q-98 87 -98 216q0 52 8 96q23 148 173 217 q78 36 154 36q90 0 156 -50q96 -72 142 -174q23 -51 23 -191q0 -208 -78 -351q-74 -136 -198 -180q-109 -39 -254 -39h-321v184z" />
<glyph unicode="&#x6a1;" horiz-adv-x="1036" d="M614 762q183 -80 207 -230q8 -50 8 -92q0 -73 -21 -122q-29 -67 -65 -117q39 -17 186 -17h127v-184h-217q-136 0 -321 57q-185 -57 -321 -57h-217v184h127q147 0 186 17q-29 40 -65 117q-21 46 -21 122q0 44 8 92q23 143 208 230q30 14 95 14q63 0 96 -14zM518 592 q-15 0 -33 -10q-56 -32 -80 -85q-10 -21 -10 -50q0 -43 24 -96q31 -68 99 -90q63 21 99 90q25 50 25 96q0 24 -11 50q-23 52 -80 85q-19 10 -33 10z" />
<glyph unicode="&#x6a1;" horiz-adv-x="2120" d="M1656 36q-104 -43 -214 -67q-280 -60 -552 -60q-305 1 -430 40q-329 103 -330 365q-1 138 63 230h184q-65 -94 -65 -230q0 -115 203 -192q81 -31 380 -31q232 0 517 54l28 4q-34 27 -63 71q-82 124 -82 245q0 31 4 67q22 155 210 230q58 23 110 23q82 0 163 -50 q137 -83 155 -233q4 -37 4 -67q0 -144 -80 -250q9 -1 16 -1h263v-184h-268q-105 0 -216 36zM1656 223q104 65 104 187q0 20 -5 47q-14 71 -66 110q-34 25 -74 25q-24 0 -46 -10q-61 -25 -80 -85q-6 -19 -6 -37q0 -56 41 -122q49 -78 132 -115z" />
<glyph unicode="&#x6a2;" horiz-adv-x="979" d="M598 537q41 43 41 120q0 59 -66 110q-31 25 -75 24q-52 -1 -92 -43q-40 -41 -41 -92q0 -80 55 -118q40 -25 82 -25q72 0 96 24zM-20 184h241q84 0 235 23q79 12 139 105q31 48 46 98q-63 -55 -160 -57q-130 -2 -208 67q-98 87 -98 216q0 52 8 96q23 148 173 217 q78 36 154 36q90 0 156 -50q96 -72 142 -174q23 -51 23 -191q0 -208 -78 -351q-74 -136 -198 -180q-109 -39 -254 -39h-321v184zM424 -150h150v-150h-150v150z" />
<glyph unicode="&#x6a2;" horiz-adv-x="1036" d="M614 762q183 -80 207 -230q8 -50 8 -92q0 -73 -21 -122q-29 -67 -65 -117q39 -17 186 -17h127v-184h-217q-136 0 -321 57q-185 -57 -321 -57h-217v184h127q147 0 186 17q-29 40 -65 117q-21 46 -21 122q0 44 8 92q23 143 208 230q30 14 95 14q63 0 96 -14zM518 592 q-15 0 -33 -10q-56 -32 -80 -85q-10 -21 -10 -50q0 -43 24 -96q31 -68 99 -90q63 21 99 90q25 50 25 96q0 24 -11 50q-23 52 -80 85q-19 10 -33 10zM424 -150h150v-150h-150v150z" />
<glyph unicode="&#x6a2;" horiz-adv-x="2120" d="M1656 36q-104 -43 -214 -67q-280 -60 -552 -60q-305 1 -430 40q-329 103 -330 365q-1 138 63 230h184q-65 -94 -65 -230q0 -115 203 -192q81 -31 380 -31q232 0 517 54l28 4q-34 27 -63 71q-82 124 -82 245q0 31 4 67q22 155 210 230q58 23 110 23q82 0 163 -50 q137 -83 155 -233q4 -37 4 -67q0 -144 -80 -250q9 -1 16 -1h263v-184h-268q-105 0 -216 36zM1656 223q104 65 104 187q0 20 -5 47q-14 71 -66 110q-34 25 -74 25q-24 0 -46 -10q-61 -25 -80 -85q-6 -19 -6 -37q0 -56 41 -122q49 -78 132 -115zM875 -200h150v-150h-150v150z " />
<glyph unicode="&#x6a3;" horiz-adv-x="979" d="M598 537q41 43 41 120q0 59 -66 110q-31 25 -75 24q-52 -1 -92 -43q-40 -41 -41 -92q0 -80 55 -118q40 -25 82 -25q72 0 96 24zM-20 184h241q84 0 235 23q79 12 139 105q31 48 46 98q-63 -55 -160 -57q-130 -2 -208 67q-98 87 -98 216q0 52 8 96q23 148 173 217 q78 36 154 36q90 0 156 -50q96 -72 142 -174q23 -51 23 -191q0 -208 -78 -351q-74 -136 -198 -180q-109 -39 -254 -39h-321v184zM425 1300h150v-150h-150v150zM424 -150h150v-150h-150v150z" />
<glyph unicode="&#x6a3;" horiz-adv-x="1036" d="M614 762q183 -80 207 -230q8 -50 8 -92q0 -73 -21 -122q-29 -67 -65 -117q39 -17 186 -17h127v-184h-217q-136 0 -321 57q-185 -57 -321 -57h-217v184h127q147 0 186 17q-29 40 -65 117q-21 46 -21 122q0 44 8 92q23 143 208 230q30 14 95 14q63 0 96 -14zM518 592 q-15 0 -33 -10q-56 -32 -80 -85q-10 -21 -10 -50q0 -43 24 -96q31 -68 99 -90q63 21 99 90q25 50 25 96q0 24 -11 50q-23 52 -80 85q-19 10 -33 10zM443 1150h150v-150h-150v150zM424 -150h150v-150h-150v150z" />
<glyph unicode="&#x6a3;" horiz-adv-x="2120" d="M1656 36q-104 -43 -214 -67q-280 -60 -552 -60q-305 1 -430 40q-329 103 -330 365q-1 138 63 230h184q-65 -94 -65 -230q0 -115 203 -192q81 -31 380 -31q232 0 517 54l28 4q-34 27 -63 71q-82 124 -82 245q0 31 4 67q22 155 210 230q58 23 110 23q82 0 163 -50 q137 -83 155 -233q4 -37 4 -67q0 -144 -80 -250q9 -1 16 -1h263v-184h-268q-105 0 -216 36zM1656 223q104 65 104 187q0 20 -5 47q-14 71 -66 110q-34 25 -74 25q-24 0 -46 -10q-61 -25 -80 -85q-6 -19 -6 -37q0 -56 41 -122q49 -78 132 -115zM1525 1100h150v-150h-150v150z M875 -200h150v-150h-150v150z" />
<glyph unicode="&#x6a5;" horiz-adv-x="979" d="M598 537q41 43 41 120q0 59 -66 110q-31 25 -75 24q-52 -1 -92 -43q-40 -41 -41 -92q0 -80 55 -118q40 -25 82 -25q72 0 96 24zM-20 184h241q84 0 235 23q79 12 139 105q31 48 46 98q-63 -55 -160 -57q-130 -2 -208 67q-98 87 -98 216q0 52 8 96q23 148 173 217 q78 36 154 36q90 0 156 -50q96 -72 142 -174q23 -51 23 -191q0 -208 -78 -351q-74 -136 -198 -180q-109 -39 -254 -39h-321v184zM425 -400h150v-150h-150v150zM550 -150h150v-150h-150v150zM300 -150h150v-150h-150v150z" />
<glyph unicode="&#x6a5;" horiz-adv-x="1036" d="M614 762q183 -80 207 -230q8 -50 8 -92q0 -73 -21 -122q-29 -67 -65 -117q39 -17 186 -17h127v-184h-217q-136 0 -321 57q-185 -57 -321 -57h-217v184h127q147 0 186 17q-29 40 -65 117q-21 46 -21 122q0 44 8 92q23 143 208 230q30 14 95 14q63 0 96 -14zM518 592 q-15 0 -33 -10q-56 -32 -80 -85q-10 -21 -10 -50q0 -43 24 -96q31 -68 99 -90q63 21 99 90q25 50 25 96q0 24 -11 50q-23 52 -80 85q-19 10 -33 10zM425 -400h150v-150h-150v150zM550 -150h150v-150h-150v150zM300 -150h150v-150h-150v150z" />
<glyph unicode="&#x6a5;" horiz-adv-x="2120" d="M1656 36q-104 -43 -214 -67q-280 -60 -552 -60q-305 1 -430 40q-329 103 -330 365q-1 138 63 230h184q-65 -94 -65 -230q0 -115 203 -192q81 -31 380 -31q232 0 517 54l28 4q-34 27 -63 71q-82 124 -82 245q0 31 4 67q22 155 210 230q58 23 110 23q82 0 163 -50 q137 -83 155 -233q4 -37 4 -67q0 -144 -80 -250q9 -1 16 -1h263v-184h-268q-105 0 -216 36zM1656 223q104 65 104 187q0 20 -5 47q-14 71 -66 110q-34 25 -74 25q-24 0 -46 -10q-61 -25 -80 -85q-6 -19 -6 -37q0 -56 41 -122q49 -78 132 -115zM875 -450h150v-150h-150v150z M1000 -200h150v-150h-150v150zM750 -200h150v-150h-150v150z" />
<glyph unicode="&#x6a7;" horiz-adv-x="979" d="M598 537q41 43 41 120q0 59 -66 110q-31 25 -75 24q-52 -1 -92 -43q-40 -41 -41 -92q0 -80 55 -118q40 -25 82 -25q72 0 96 24zM-20 184h241q84 0 235 23q79 12 139 105q31 48 46 98q-63 -55 -160 -57q-130 -2 -208 67q-98 87 -98 216q0 52 8 96q23 148 173 217 q78 36 154 36q90 0 156 -50q96 -72 142 -174q23 -51 23 -191q0 -208 -78 -351q-74 -136 -198 -180q-109 -39 -254 -39h-321v184zM425 1300h150v-150h-150v150z" />
<glyph unicode="&#x6a7;" horiz-adv-x="1036" d="M614 762q183 -80 207 -230q8 -50 8 -92q0 -73 -21 -122q-29 -67 -65 -117q39 -17 186 -17h127v-184h-217q-136 0 -321 57q-185 -57 -321 -57h-217v184h127q147 0 186 17q-29 40 -65 117q-21 46 -21 122q0 44 8 92q23 143 208 230q30 14 95 14q63 0 96 -14zM518 592 q-15 0 -33 -10q-56 -32 -80 -85q-10 -21 -10 -50q0 -43 24 -96q31 -68 99 -90q63 21 99 90q25 50 25 96q0 24 -11 50q-23 52 -80 85q-19 10 -33 10zM443 1150h150v-150h-150v150z" />
<glyph unicode="&#x6a7;" horiz-adv-x="1708" d="M1208 10q-66 5 -112 18q-121 35 -178 78q-147 109 -147 294q0 61 6 87q40 165 187 234q41 19 128 19q112 0 168 -50q99 -88 149 -233q20 -58 26 -272q26 -1 30 -1h263v-184h-268h-48q-45 -122 -106 -192q-128 -145 -286 -223q-175 -86 -380 -85q-370 2 -464 192 q-69 138 -69 263q0 166 62 262h184q-62 -107 -62 -262q0 -76 27 -134q60 -130 322 -130q140 0 290 68q213 98 278 251zM1251 203q4 122 -18 209q-19 75 -66 110q-34 25 -73 25q-34 0 -55 -10q-51 -27 -72 -85q-10 -30 -10 -55q0 -60 57 -104q76 -59 176 -79q47 -9 61 -11z M1025 1025h150v-150h-150v150z" />
<glyph unicode="&#x6a8;" horiz-adv-x="979" d="M598 537q41 43 41 120q0 59 -66 110q-31 25 -75 24q-52 -1 -92 -43q-40 -41 -41 -92q0 -80 55 -118q40 -25 82 -25q72 0 96 24zM-20 184h241q84 0 235 23q79 12 139 105q31 48 46 98q-63 -55 -160 -57q-130 -2 -208 67q-98 87 -98 216q0 52 8 96q23 148 173 217 q78 36 154 36q90 0 156 -50q96 -72 142 -174q23 -51 23 -191q0 -208 -78 -351q-74 -136 -198 -180q-109 -39 -254 -39h-321v184zM425 1550h150v-150h-150v150zM550 1300h150v-150h-150v150zM300 1300h150v-150h-150v150z" />
<glyph unicode="&#x6a8;" horiz-adv-x="1036" d="M614 762q183 -80 207 -230q8 -50 8 -92q0 -73 -21 -122q-29 -67 -65 -117q39 -17 186 -17h127v-184h-217q-136 0 -321 57q-185 -57 -321 -57h-217v184h127q147 0 186 17q-29 40 -65 117q-21 46 -21 122q0 44 8 92q23 143 208 230q30 14 95 14q63 0 96 -14zM518 592 q-15 0 -33 -10q-56 -32 -80 -85q-10 -21 -10 -50q0 -43 24 -96q31 -68 99 -90q63 21 99 90q25 50 25 96q0 24 -11 50q-23 52 -80 85q-19 10 -33 10zM443 1400h150v-150h-150v150zM568 1150h150v-150h-150v150zM318 1150h150v-150h-150v150z" />
<glyph unicode="&#x6a8;" horiz-adv-x="1708" d="M1208 10q-66 5 -112 18q-121 35 -178 78q-147 109 -147 294q0 61 6 87q40 165 187 234q41 19 128 19q112 0 168 -50q99 -88 149 -233q20 -58 26 -272q26 -1 30 -1h263v-184h-268h-48q-45 -122 -106 -192q-128 -145 -286 -223q-175 -86 -380 -85q-370 2 -464 192 q-69 138 -69 263q0 166 62 262h184q-62 -107 -62 -262q0 -76 27 -134q60 -130 322 -130q140 0 290 68q213 98 278 251zM1251 203q4 122 -18 209q-19 75 -66 110q-34 25 -73 25q-34 0 -55 -10q-51 -27 -72 -85q-10 -30 -10 -55q0 -60 57 -104q76 -59 176 -79q47 -9 61 -11z M1025 1275h150v-150h-150v150zM1150 1025h150v-150h-150v150zM900 1025h150v-150h-150v150z" />
<glyph unicode="&#x6aa;" horiz-adv-x="1778" d="M-20 0v184h1288q147 0 193 104q19 44 16 72q-13 110 -112 125l-935 145q-355 55 -355 245v8q0 5 11 67q17 98 179 195l688 411h352l-920 -536q-95 -55 -110 -90q-9 -10 -5 -45q6 -53 180 -80l970 -150q248 -38 248 -286q0 -113 -62 -214q-95 -155 -318 -155h-1308z" />
<glyph unicode="&#x6aa;" horiz-adv-x="1778" d="M-20 0v184h1288q136 0 193 104q16 29 16 53q0 127 -112 144l-935 145q-355 55 -355 245v8q0 4 11 67q17 98 179 195l688 411h352l-920 -536q-95 -55 -110 -90q-9 -10 -5 -45q6 -53 180 -80l970 -150q248 -38 248 -286v-69q0 -95 47 -111q15 -5 37 -5h46v-184h-90 q-90 0 -118 23.5t-39 63.5q-96 -87 -263 -87h-1308z" />
<glyph unicode="&#x6aa;" horiz-adv-x="2158" d="M1270 88q184 0 365.5 75t206 129t24.5 59v9q0 107 -121 125l-935 145q-355 55 -355 245v7q0 6 11 68q19 99 179 195l688 411h352l-920 -536q-95 -55 -110 -90q-9 -10 -5 -45q6 -53 180 -80l970 -150q248 -38 248 -286v-69q0 -94 47 -111q15 -5 37 -5h46v-184h-90 q-92 0 -120.5 25t-39.5 73q-83 -57 -285 -122t-363 -65h-500q-192 0 -320 38q-330 98 -330 365q0 138 63 230h184q-65 -94 -65 -230q0 -126 203 -192q104 -34 255 -34h500z" />
<glyph unicode="&#x6ab;" horiz-adv-x="975" d="M310 0h-330v184h310q148 0 193 104q16 36 16 72q0 69 -54 135l-310 380q-50 61 -50 142q0 35 10 68q31 118 135 161l745 310v-186l-595 -250q-71 -30 -92 -70q-6 -11 -6 -36q0 -32 31 -69l275 -330q102 -123 102 -246q0 -113 -62 -214q-95 -155 -318 -155zM816 1120 q0 40 -28 68q-28 29 -69 29t-69 -28t-28 -69q0 -42 28 -70q28 -27 69 -27t69 28t28 69zM938 1120q0 -92 -63 -156q-64 -64 -156 -64t-155 64q-64 64 -64 156t64 156q63 63 155 63t156 -63q63 -64 63 -156z" />
<glyph unicode="&#x6ab;" horiz-adv-x="1131" d="M310 0h-330v184h310q148 0 193 104q16 36 16 72q0 69 -54 135l-310 380q-50 61 -50 142q0 35 10 68q31 118 135 161l745 310v-186l-595 -250q-71 -30 -92 -70q-6 -11 -6 -36q0 -32 31 -69l583 -705q22 -26 60 -40q43 -16 107 -16h88v-184h-132q-65 0 -123 24 q-103 43 -136 84l-97 120q-21 -46 -38 -73q-95 -155 -315 -155zM816 1120q0 40 -28 68q-28 29 -69 29t-69 -28t-28 -69q0 -42 28 -70q28 -27 69 -27t69 28t28 69zM938 1120q0 -92 -63 -156q-64 -64 -156 -64t-155 64q-64 64 -64 156t64 156q63 63 155 63t156 -63 q63 -64 63 -156z" />
<glyph unicode="&#x6ab;" horiz-adv-x="1833" d="M1436 120q-99 -76 -268 -136q-205 -73 -388 -73q-192 0 -320 38q-330 98 -330 365q0 138 63 230h184q-65 -94 -65 -230q0 -126 203 -192q104 -34 255 -34q184 0 378 80q158 65 193 120q16 26 16 72q0 69 -54 135l-310 380q-50 61 -50 142q0 35 10 68q35 119 135 161 l745 310v-186l-595 -250q-71 -30 -92 -70q-6 -11 -6 -36q0 -32 31 -69l583 -705q22 -26 60 -40q43 -16 107 -16h88v-184h-132q-65 0 -123 24q-103 43 -136 84l-97 120q-25 -64 -85 -108zM1666 1120q0 40 -28 68q-28 29 -69 29t-69 -28t-28 -69q0 -42 28 -70q28 -27 69 -27 t69 28t28 69zM1788 1120q0 -92 -63 -156q-64 -64 -156 -64t-155 64q-64 64 -64 156t64 156q63 63 155 63t156 -63q63 -64 63 -156z" />
<glyph unicode="&#x6ac;" horiz-adv-x="975" d="M310 0h-330v184h310q148 0 193 104q16 36 16 72q0 69 -54 135l-310 380q-50 61 -50 142q0 35 10 68q31 118 135 161l745 310v-186l-595 -250q-71 -30 -92 -70q-6 -11 -6 -36q0 -32 31 -69l275 -330q102 -123 102 -246q0 -113 -62 -214q-95 -155 -318 -155zM200 1650h150 v-150h-150v150z" />
<glyph unicode="&#x6ac;" horiz-adv-x="1131" d="M310 0h-330v184h310q148 0 193 104q16 36 16 72q0 69 -54 135l-310 380q-50 61 -50 142q0 35 10 68q31 118 135 161l745 310v-186l-595 -250q-71 -30 -92 -70q-6 -11 -6 -36q0 -32 31 -69l583 -705q22 -26 60 -40q43 -16 107 -16h88v-184h-132q-65 0 -123 24 q-103 43 -136 84l-97 120q-21 -46 -38 -73q-95 -155 -315 -155zM200 1650h150v-150h-150v150z" />
<glyph unicode="&#x6ac;" horiz-adv-x="1726" d="M976 1135v-82q-74 -4 -112 -18q-80 -30 -80 -63q0 -28 14 -46q12 -16 80 -26q102 -15 102 -103q0 -110 -88 -152q-82 -39 -160 -39q-66 0 -122 11v88q68 -10 113 -10q60 0 117 26q60 26 60 56q0 38 -78 55q-74 16 -92 44q-32 47 -31 93q2 81 77 119q85 43 200 47z M999 -37q-109 -20 -254 -18q-207 2 -308 32q-293 88 -293 283q0 75 16 128h184q-14 -58 -14 -102q2 -92 162 -138q121 -35 248 -35q140 0 229 27q152 47 250 141q76 73 76 330v945h184v-1173q0 -106 49 -155q44 -44 143 -44h75v-184h-130q-153 0 -266 123 q-158 -126 -351 -160zM750 1500h150v-150h-150v150z" />
<glyph unicode="&#x6ae;" horiz-adv-x="975" d="M310 0h-330v184h310q148 0 193 104q16 36 16 72q0 69 -54 135l-310 380q-50 61 -50 142q0 35 10 68q31 118 135 161l745 310v-186l-595 -250q-71 -30 -92 -70q-6 -11 -6 -36q0 -32 31 -69l275 -330q102 -123 102 -246q0 -113 -62 -214q-95 -155 -318 -155zM325 -400h150 v-150h-150v150zM450 -150h150v-150h-150v150zM200 -150h150v-150h-150v150z" />
<glyph unicode="&#x6ae;" horiz-adv-x="1131" d="M310 0h-330v184h310q148 0 193 104q16 36 16 72q0 69 -54 135l-310 380q-50 61 -50 142q0 35 10 68q31 118 135 161l745 310v-186l-595 -250q-71 -30 -92 -70q-6 -11 -6 -36q0 -32 31 -69l583 -705q22 -26 60 -40q43 -16 107 -16h88v-184h-132q-65 0 -123 24 q-103 43 -136 84l-97 120q-21 -46 -38 -73q-95 -155 -315 -155zM325 -400h150v-150h-150v150zM450 -150h150v-150h-150v150zM200 -150h150v-150h-150v150z" />
<glyph unicode="&#x6ae;" horiz-adv-x="1726" d="M976 1135v-82q-74 -4 -112 -18q-80 -30 -80 -63q0 -28 14 -46q12 -16 80 -26q102 -15 102 -103q0 -110 -88 -152q-82 -39 -160 -39q-66 0 -122 11v88q68 -10 113 -10q60 0 117 26q60 26 60 56q0 38 -78 55q-74 16 -92 44q-32 47 -31 93q2 81 77 119q85 43 200 47z M999 -37q-109 -20 -254 -18q-207 2 -308 32q-293 88 -293 283q0 75 16 128h184q-14 -58 -14 -102q2 -92 162 -138q121 -35 248 -35q140 0 229 27q152 47 250 141q76 73 76 330v945h184v-1173q0 -106 49 -155q44 -44 143 -44h75v-184h-130q-153 0 -266 123 q-158 -126 -351 -160zM725 -450h150v-150h-150v150zM850 -200h150v-150h-150v150zM600 -200h150v-150h-150v150z" />
<glyph unicode="&#x6b0;" horiz-adv-x="975" d="M310 0h-330v184h310q148 0 193 104q16 36 16 72q0 69 -54 135l-310 380q-50 61 -50 142q0 35 10 68q31 118 135 161l745 310v-186l-595 -250q-71 -30 -92 -70q-6 -11 -6 -36q0 -32 31 -69l275 -330q102 -123 102 -246q0 -113 -62 -214q-95 -155 -318 -155zM975 1685 l-863 -354v150l863 354v-150zM816 1120q0 40 -28 68q-28 29 -69 29t-69 -28t-28 -69q0 -42 28 -70q28 -27 69 -27t69 28t28 69zM938 1120q0 -92 -63 -156q-64 -64 -156 -64t-155 64q-64 64 -64 156t64 156q63 63 155 63t156 -63q63 -64 63 -156z" />
<glyph unicode="&#x6b0;" horiz-adv-x="1131" d="M310 0h-330v184h310q148 0 193 104q16 36 16 72q0 69 -54 135l-310 380q-50 61 -50 142q0 35 10 68q31 118 135 161l745 310v-186l-595 -250q-71 -30 -92 -70q-6 -11 -6 -36q0 -32 31 -69l583 -705q22 -26 60 -40q43 -16 107 -16h88v-184h-132q-65 0 -123 24 q-103 43 -136 84l-97 120q-21 -46 -38 -73q-95 -155 -315 -155zM975 1685l-863 -354v150l863 354v-150zM816 1120q0 40 -28 68q-28 29 -69 29t-69 -28t-28 -69q0 -42 28 -70q28 -27 69 -27t69 28t28 69zM938 1120q0 -92 -63 -156q-64 -64 -156 -64t-155 64q-64 64 -64 156 t64 156q63 63 155 63t156 -63q63 -64 63 -156z" />
<glyph unicode="&#x6b0;" horiz-adv-x="1833" d="M1436 120q-99 -76 -268 -136q-205 -73 -388 -73q-192 0 -320 38q-330 98 -330 365q0 138 63 230h184q-65 -94 -65 -230q0 -126 203 -192q104 -34 255 -34q184 0 378 80q158 65 193 120q16 26 16 72q0 69 -54 135l-310 380q-50 61 -50 142q0 35 10 68q35 119 135 161 l745 310v-186l-595 -250q-71 -30 -92 -70q-6 -11 -6 -36q0 -32 31 -69l583 -705q22 -26 60 -40q43 -16 107 -16h88v-184h-132q-65 0 -123 24q-103 43 -136 84l-97 120q-25 -64 -85 -108zM1833 1685l-863 -354v150l863 354v-150zM1666 1120q0 40 -28 68q-28 29 -69 29 t-69 -28t-28 -69q0 -42 28 -70q28 -27 69 -27t69 28t28 69zM1788 1120q0 -92 -63 -156q-64 -64 -156 -64t-155 64q-64 64 -64 156t64 156q63 63 155 63t156 -63q63 -64 63 -156z" />
<glyph unicode="&#x6b2;" horiz-adv-x="975" d="M310 0h-330v184h310q148 0 193 104q16 36 16 72q0 69 -54 135l-310 380q-50 61 -50 142q0 35 10 68q31 118 135 161l745 310v-186l-595 -250q-71 -30 -92 -70q-6 -11 -6 -36q0 -32 31 -69l275 -330q102 -123 102 -246q0 -113 -62 -214q-95 -155 -318 -155zM975 1685 l-863 -354v150l863 354v-150zM450 -150h150v-150h-150v150zM200 -150h150v-150h-150v150z" />
<glyph unicode="&#x6b2;" horiz-adv-x="1131" d="M310 0h-330v184h310q148 0 193 104q16 36 16 72q0 69 -54 135l-310 380q-50 61 -50 142q0 35 10 68q31 118 135 161l745 310v-186l-595 -250q-71 -30 -92 -70q-6 -11 -6 -36q0 -32 31 -69l583 -705q22 -26 60 -40q43 -16 107 -16h88v-184h-132q-65 0 -123 24 q-103 43 -136 84l-97 120q-21 -46 -38 -73q-95 -155 -315 -155zM975 1685l-863 -354v150l863 354v-150zM450 -150h150v-150h-150v150zM200 -150h150v-150h-150v150z" />
<glyph unicode="&#x6b2;" horiz-adv-x="1833" d="M1436 120q-99 -76 -268 -136q-205 -73 -388 -73q-192 0 -320 38q-330 98 -330 365q0 138 63 230h184q-65 -94 -65 -230q0 -126 203 -192q104 -34 255 -34q184 0 378 80q158 65 193 120q16 26 16 72q0 69 -54 135l-310 380q-50 61 -50 142q0 35 10 68q35 119 135 161 l745 310v-186l-595 -250q-71 -30 -92 -70q-6 -11 -6 -36q0 -32 31 -69l583 -705q22 -26 60 -40q43 -16 107 -16h88v-184h-132q-65 0 -123 24q-103 43 -136 84l-97 120q-25 -64 -85 -108zM1833 1685l-863 -354v150l863 354v-150zM850 -200h150v-150h-150v150zM600 -200h150 v-150h-150v150z" />
<glyph unicode="&#x6b4;" horiz-adv-x="975" d="M310 0h-330v184h310q148 0 193 104q16 36 16 72q0 69 -54 135l-310 380q-50 61 -50 142q0 35 10 68q31 118 135 161l745 310v-186l-595 -250q-71 -30 -92 -70q-6 -11 -6 -36q0 -32 31 -69l275 -330q102 -123 102 -246q0 -113 -62 -214q-95 -155 -318 -155zM975 1685 l-863 -354v150l863 354v-150zM200 2100h150v-150h-150v150zM325 1850h150v-150h-150v150zM75 1850h150v-150h-150v150z" />
<glyph unicode="&#x6b4;" horiz-adv-x="1131" d="M310 0h-330v184h310q148 0 193 104q16 36 16 72q0 69 -54 135l-310 380q-50 61 -50 142q0 35 10 68q31 118 135 161l745 310v-186l-595 -250q-71 -30 -92 -70q-6 -11 -6 -36q0 -32 31 -69l583 -705q22 -26 60 -40q43 -16 107 -16h88v-184h-132q-65 0 -123 24 q-103 43 -136 84l-97 120q-21 -46 -38 -73q-95 -155 -315 -155zM975 1685l-863 -354v150l863 354v-150zM200 2100h150v-150h-150v150zM325 1850h150v-150h-150v150zM75 1850h150v-150h-150v150z" />
<glyph unicode="&#x6b4;" horiz-adv-x="1833" d="M1436 120q-99 -76 -268 -136q-205 -73 -388 -73q-192 0 -320 38q-330 98 -330 365q0 138 63 230h184q-65 -94 -65 -230q0 -126 203 -192q104 -34 255 -34q184 0 378 80q158 65 193 120q16 26 16 72q0 69 -54 135l-310 380q-50 61 -50 142q0 35 10 68q35 119 135 161 l745 310v-186l-595 -250q-71 -30 -92 -70q-6 -11 -6 -36q0 -32 31 -69l583 -705q22 -26 60 -40q43 -16 107 -16h88v-184h-132q-65 0 -123 24q-103 43 -136 84l-97 120q-25 -64 -85 -108zM1833 1685l-863 -354v150l863 354v-150zM1025 2100h150v-150h-150v150zM1150 1850h150 v-150h-150v150zM900 1850h150v-150h-150v150z" />
<glyph unicode="&#x6b5;" horiz-adv-x="624" d="M265 1662l-195 326h139l130 -195l130 195h139l-195 -326h-148zM431 371q0 -178 -87 -279q-80 -92 -234 -92h-130v184h75q99 0 143 44q49 49 49 155v1173h184v-1185z" />
<glyph unicode="&#x6b5;" horiz-adv-x="678" d="M265 1662l-195 326h139l130 -195l130 195h139l-195 -326h-148zM339 86q-77 -86 -229 -86h-130v184h75q99 0 143 44q49 49 49 155v1173h184v-1173q0 -106 49 -155q44 -44 143 -44h75v-184h-130q-150 0 -229 86z" />
<glyph unicode="&#x6b5;" horiz-adv-x="1551" d="M1138 1662l-195 326h139l130 -195l130 195h139l-195 -326h-148zM1042 73q78 126 78 353v1130h184v-1173q0 -106 49 -155q44 -44 143 -44h75v-184h-130q-112 0 -190 51q-18 -46 -45 -86q-121 -177 -382 -243q-134 -34 -219 -34q-99 0 -168 22q-292 91 -293 365 q-1 138 63 230h184q-65 -115 -65 -230q0 -126 166 -192q40 -16 113 -16q80 0 189 34q174 53 248 172z" />
<glyph unicode="&#x6b6;" horiz-adv-x="624" d="M431 371q0 -178 -87 -279q-80 -92 -234 -92h-130v184h75q99 0 143 44q49 49 49 155v1173h184v-1185zM257 1950h150v-150h-150v150z" />
<glyph unicode="&#x6b6;" horiz-adv-x="678" d="M339 86q-77 -86 -229 -86h-130v184h75q99 0 143 44q49 49 49 155v1173h184v-1173q0 -106 49 -155q44 -44 143 -44h75v-184h-130q-150 0 -229 86zM257 1950h150v-150h-150v150z" />
<glyph unicode="&#x6b6;" horiz-adv-x="1551" d="M1042 73q78 126 78 353v1130h184v-1173q0 -106 49 -155q44 -44 143 -44h75v-184h-130q-112 0 -190 51q-18 -46 -45 -86q-121 -177 -382 -243q-134 -34 -219 -34q-99 0 -168 22q-292 91 -293 365q-1 138 63 230h184q-65 -115 -65 -230q0 -126 166 -192q40 -16 113 -16 q80 0 189 34q174 53 248 172zM1130 1950h150v-150h-150v150z" />
<glyph unicode="&#x6b7;" horiz-adv-x="624" d="M431 371q0 -178 -87 -279q-80 -92 -234 -92h-130v184h75q99 0 143 44q49 49 49 155v1173h184v-1185zM252 2100h150v-150h-150v150zM377 1850h150v-150h-150v150zM127 1850h150v-150h-150v150z" />
<glyph unicode="&#x6b7;" horiz-adv-x="678" d="M339 86q-77 -86 -229 -86h-130v184h75q99 0 143 44q49 49 49 155v1173h184v-1173q0 -106 49 -155q44 -44 143 -44h75v-184h-130q-150 0 -229 86zM252 2100h150v-150h-150v150zM377 1850h150v-150h-150v150zM127 1850h150v-150h-150v150z" />
<glyph unicode="&#x6b7;" horiz-adv-x="1551" d="M1042 73q78 126 78 353v1130h184v-1173q0 -106 49 -155q44 -44 143 -44h75v-184h-130q-112 0 -190 51q-18 -46 -45 -86q-121 -177 -382 -243q-134 -34 -219 -34q-99 0 -168 22q-292 91 -293 365q-1 138 63 230h184q-65 -115 -65 -230q0 -126 166 -192q40 -16 113 -16 q80 0 189 34q174 53 248 172zM1125 2100h150v-150h-150v150zM1250 1850h150v-150h-150v150zM1000 1850h150v-150h-150v150z" />
<glyph unicode="&#x6b8;" horiz-adv-x="624" d="M431 371q0 -178 -87 -279q-80 -92 -234 -92h-130v184h75q99 0 143 44q49 49 49 155v1173h184v-1185zM224 -350h150v-150h-150v150zM349 -100h150v-150h-150v150zM99 -100h150v-150h-150v150z" />
<glyph unicode="&#x6b8;" horiz-adv-x="678" d="M339 86q-77 -86 -229 -86h-130v184h75q99 0 143 44q49 49 49 155v1173h184v-1173q0 -106 49 -155q44 -44 143 -44h75v-184h-130q-150 0 -229 86zM254 -350h150v-150h-150v150zM379 -100h150v-150h-150v150zM129 -100h150v-150h-150v150z" />
<glyph unicode="&#x6b8;" horiz-adv-x="1551" d="M1042 73q78 126 78 353v1130h184v-1173q0 -106 49 -155q44 -44 143 -44h75v-184h-130q-112 0 -190 51q-18 -46 -45 -86q-121 -177 -382 -243q-134 -34 -219 -34q-99 0 -168 22q-292 91 -293 365q-1 138 63 230h184q-65 -115 -65 -230q0 -126 166 -192q40 -16 113 -16 q80 0 189 34q174 53 248 172zM675 -650h150v-150h-150v150zM800 -400h150v-150h-150v150zM550 -400h150v-150h-150v150z" />
<glyph unicode="&#x6b9;" horiz-adv-x="570" d="M224 1000h150v-150h-150v150zM299 86q-72 -86 -229 -86h-90v184h35q99 0 143 44q49 49 49 155v217h184v-217q0 -187 -92 -297zM224 -150h150v-150h-150v150z" />
<glyph unicode="&#x6b9;" horiz-adv-x="618" d="M224 1000h150v-150h-150v150zM299 86q-77 -86 -229 -86h-90v184h35q99 0 143 44q49 49 49 155v217h184v-217q0 -106 49 -155q44 -44 143 -44h55v-184h-110q-150 0 -229 86zM224 -150h150v-150h-150v150z" />
<glyph unicode="&#x6b9;" horiz-adv-x="1559" d="M1248 581q44 -97 71 -193q22 -80 72 -140q53 -64 113 -64h75v-184h-130q-71 0 -105 48q-3 -109 -92 -256q-120 -199 -359 -265q-97 -27 -189 -27q-116 0 -229 37q-328 107 -328 462q0 175 47 316h184q-49 -137 -49 -316q0 -236 201 -289q90 -24 166 -24q88 0 167 20 q194 48 269 275q33 101 33 213q0 184 -101 387h184zM575 700h150v-150h-150v150zM700 -675h150v-150h-150v150z" />
<glyph unicode="&#x6ba;" horiz-adv-x="570" d="M299 86q-72 -86 -229 -86h-90v184h35q99 0 143 44q49 49 49 155v217h184v-217q0 -187 -92 -297zM224 1000h150v-150h-150v150z" />
<glyph unicode="&#x6ba;" horiz-adv-x="618" d="M299 86q-77 -86 -229 -86h-90v184h35q99 0 143 44q49 49 49 155v217h184v-217q0 -106 49 -155q44 -44 143 -44h55v-184h-110q-150 0 -229 86zM224 1000h150v-150h-150v150z" />
<glyph unicode="&#x6bc;" horiz-adv-x="570" d="M224 1000h150v-150h-150v150zM299 86q-72 -86 -229 -86h-90v184h35q99 0 143 44q49 49 49 155v217h184v-217q0 -187 -92 -297zM396 -48q0 40 -28 68q-28 29 -69 29t-69 -28t-28 -69q0 -42 28 -70q28 -27 69 -27t69 28t28 69zM518 -48q0 -92 -63 -156q-64 -64 -156 -64 t-155 64q-64 64 -64 156t64 156q63 63 155 63t156 -63q63 -64 63 -156z" />
<glyph unicode="&#x6bc;" horiz-adv-x="618" d="M224 1000h150v-150h-150v150zM299 86q-77 -86 -229 -86h-90v184h35q99 0 143 44q49 49 49 155v217h184v-217q0 -106 49 -155q44 -44 143 -44h55v-184h-110q-150 0 -229 86zM396 -48q0 40 -28 68q-28 29 -69 29t-69 -28t-28 -69q0 -42 28 -70q28 -27 69 -27t69 28t28 69z M518 -48q0 -92 -63 -156q-64 -64 -156 -64t-155 64q-64 64 -64 156t64 156q63 63 155 63t156 -63q63 -64 63 -156z" />
<glyph unicode="&#x6bc;" horiz-adv-x="1559" d="M1248 581q44 -97 71 -193q22 -80 72 -140q53 -64 113 -64h75v-184h-130q-71 0 -105 48q-3 -109 -92 -256q-120 -199 -359 -265q-97 -27 -189 -27q-116 0 -229 37q-328 107 -328 462q0 175 47 316h184q-49 -137 -49 -316q0 -236 201 -289q90 -24 166 -24q88 0 167 20 q194 48 269 275q33 101 33 213q0 184 -101 387h184zM575 700h150v-150h-150v150zM866 -630q0 40 -28 68q-28 29 -69 29t-69 -28t-28 -69q0 -42 28 -70q28 -27 69 -27t69 28t28 69zM988 -630q0 -92 -63 -156q-64 -64 -156 -64t-155 64q-64 64 -64 156t64 156q63 63 155 63 t156 -63q63 -64 63 -156z" />
<glyph unicode="&#x6bd;" horiz-adv-x="570" d="M299 86q-72 -86 -229 -86h-90v184h35q99 0 143 44q49 49 49 155v217h184v-217q0 -187 -92 -297zM224 1250h150v-150h-150v150zM349 1000h150v-150h-150v150zM99 1000h150v-150h-150v150z" />
<glyph unicode="&#x6bd;" horiz-adv-x="618" d="M299 86q-77 -86 -229 -86h-90v184h35q99 0 143 44q49 49 49 155v217h184v-217q0 -106 49 -155q44 -44 143 -44h55v-184h-110q-150 0 -229 86zM224 1250h150v-150h-150v150zM349 1000h150v-150h-150v150zM99 1000h150v-150h-150v150z" />
<glyph unicode="&#x6bd;" horiz-adv-x="1559" d="M1248 581q44 -97 71 -193q22 -80 72 -140q53 -64 113 -64h75v-184h-130q-71 0 -105 48q-3 -109 -92 -256q-120 -199 -359 -265q-97 -27 -189 -27q-116 0 -229 37q-328 107 -328 462q0 175 47 316h184q-49 -137 -49 -316q0 -236 201 -289q90 -24 166 -24q88 0 167 20 q194 48 269 275q33 101 33 213q0 184 -101 387h184zM625 950h150v-150h-150v150zM750 700h150v-150h-150v150zM500 700h150v-150h-150v150z" />
<glyph unicode="&#x6bf;" horiz-adv-x="1266" d="M851 541q-83 23 -186 46q-85 19 -265 35q-82 7 -243 1v184q72 7 147 8q162 0 334 -35q258 -52 478 -150v-154q-76 -24 -164 -76q-166 -98 -240 -164q-145 -129 -220 -156q-221 -80 -384 -80h-128v184h100q227 0 356 72q104 58 220 164q94 86 195 121zM525 -300h150v-150 h-150v150zM650 -50h150v-150h-150v150zM400 -50h150v-150h-150v150zM525 1100h150v-150h-150v150z" />
<glyph unicode="&#x6bf;" horiz-adv-x="1322" d="M638 780q258 -52 478 -150v-154q-65 -20 -138 -61q50 -78 80 -112q104 -119 218 -119h66v-184h-86q-209 0 -335 168q-40 54 -99 151q-69 -46 -110 -83q-145 -129 -220 -156q-221 -80 -384 -80h-128v184h100q227 0 356 72q104 58 220 164q94 86 195 121q-83 23 -186 46 q-85 19 -265 35q-82 7 -243 1v184q72 7 147 8q162 0 334 -35zM537 -300h150v-150h-150v150zM662 -50h150v-150h-150v150zM412 -50h150v-150h-150v150zM525 1100h150v-150h-150v150z" />
<glyph unicode="&#x6bf;" horiz-adv-x="1322" d="M1302 184h40v-184h-49q-129 0 -252 150q-82 100 -143 256q-6 15 -79 193q-114 -24 -212 -104q-224 -183 -224 -435q0 -137 74 -231q129 -164 458 -164q193 0 405 118v-184q-150 -99 -400 -99q-418 0 -587 194q-131 150 -131 374q0 258 212 481q96 101 233 153h-25 q-95 0 -235 -19q-135 -19 -230 -60v184q272 63 465 63q294 0 494 -54v-154q-109 0 -140 -13l29 -91q51 -160 123 -255q90 -119 174 -119zM575 1200h150v-150h-150v150zM612 -75h150v-150h-150v150zM737 175h150v-150h-150v150zM487 175h150v-150h-150v150z" />
<glyph unicode="&#x6ce;" horiz-adv-x="570" d="M225 762l-195 326h139l130 -195l130 195h139l-195 -326h-148zM349 -150h150v-150h-150v150zM99 -150h150v-150h-150v150zM299 86q-72 -86 -229 -86h-90v184h35q99 0 143 44q49 49 49 155v217h184v-217q0 -187 -92 -297z" />
<glyph unicode="&#x6ce;" horiz-adv-x="618" d="M225 762l-195 326h139l130 -195l130 195h139l-195 -326h-148zM349 -150h150v-150h-150v150zM99 -150h150v-150h-150v150zM299 86q-77 -86 -229 -86h-90v184h35q99 0 143 44q49 49 49 155v217h184v-217q0 -106 49 -155q44 -44 143 -44h55v-184h-110q-150 0 -229 86z" />
<glyph unicode="&#x6ce;" horiz-adv-x="1707" d="M626 512l-195 326h139l130 -195l130 195h139l-195 -326h-148zM1100 -33q91 51 91 84q-1 43 -48 56q-29 8 -59 48q-44 59 -44 120q0 65 52 125q80 94 164 108q30 6 72 6q117 0 204 -134q128 -196 160 -196h35v-184h-35q-114 0 -226 172q-108 165 -134 165q-36 0 -51 -6 q-45 -17 -45 -52q0 -48 65 -75q73 -30 76 -153q3 -98 -110 -184q-128 -96 -346 -127q-89 -12 -193 -12q-188 0 -305 41q-293 103 -293 365q0 153 63 243h184q-65 -90 -65 -243q0 -114 166 -192q66 -31 245 -31q91 0 168 8q149 15 209 48z" />
<glyph unicode="&#x6d5;" horiz-adv-x="1098" d="M676 282q-15 42 -28 91q-13 50 -25 151q-120 -12 -202 -79q-111 -89 -109 -151q1 -41 91 -66t273 54zM609 668q-4 39 -7 82h184q1 -168 37 -342q21 -101 77 -180q31 -44 143 -44h75v-184h-130q-90 0 -163 51q-45 31 -83 90q-138 -73 -294 -73q-56 0 -114 15 q-189 48 -189 202q0 173 204 300q109 68 260 83z" />
<glyph unicode="&#x67b;" horiz-adv-x="1928" arabic-form="isolated" d="M825 -350h150v-150h-150v150zM825 -100h150v-150h-150v150zM1756 669q15 -90 15 -160q0 -135 -76 -236q-128 -171 -445 -235q-285 -58 -470 -58q-191 0 -320 38q-330 97 -330 365q0 138 63 230h184q-65 -94 -65 -230q0 -125 203 -192q104 -34 255 -34q185 0 450 57 q255 54 322 167q55 93 55 168q0 59 -25 120h184z" />
<glyph unicode="&#x67b;" horiz-adv-x="2011" arabic-form="final" d="M825 -350h150v-150h-150v150zM825 -100h150v-150h-150v150zM1775 504q0 -208 70 -267q63 -53 126 -53h60v-184h-102q-116 0 -187 73q-80 83 -104 149q-155 -131 -388 -184q-259 -58 -470 -58q-196 0 -320 38q-329 101 -330 365q-1 138 63 230h184q-65 -94 -65 -230 q0 -125 203 -192q104 -34 255 -34q260 2 450 57q199 58 322 167q59 52 59 171q0 62 -29 117h184q19 -75 19 -165z" />
<glyph unicode="&#x67b;" horiz-adv-x="570" arabic-form="initial" d="M299 86q-72 -86 -229 -86h-90v184h35q99 0 143 44q49 49 49 155v217h184v-217q0 -187 -92 -297zM224 -350h150v-150h-150v150zM224 -100h150v-150h-150v150z" />
<glyph unicode="&#x67b;" horiz-adv-x="618" arabic-form="medial" d="M224 -350h150v-150h-150v150zM224 -100h150v-150h-150v150zM299 86q-77 -86 -229 -86h-90v184h35q99 0 143 44q49 49 49 155v217h184v-217q0 -106 49 -155q44 -44 143 -44h55v-184h-110q-150 0 -229 86z" />
<glyph unicode="&#x67e;" horiz-adv-x="1928" arabic-form="isolated" d="M825 -350h150v-150h-150v150zM950 -100h150v-150h-150v150zM700 -100h150v-150h-150v150zM1756 669q15 -90 15 -160q0 -135 -76 -236q-128 -171 -445 -235q-285 -58 -470 -58q-191 0 -320 38q-330 97 -330 365q0 138 63 230h184q-65 -94 -65 -230q0 -125 203 -192 q104 -34 255 -34q185 0 450 57q255 54 322 167q55 93 55 168q0 59 -25 120h184z" />
<glyph unicode="&#x67e;" horiz-adv-x="2011" arabic-form="final" d="M825 -350h150v-150h-150v150zM950 -100h150v-150h-150v150zM700 -100h150v-150h-150v150zM1775 504q0 -208 70 -267q63 -53 126 -53h60v-184h-102q-116 0 -187 73q-80 83 -104 149q-155 -131 -388 -184q-259 -58 -470 -58q-196 0 -320 38q-329 101 -330 365 q-1 138 63 230h184q-65 -94 -65 -230q0 -125 203 -192q104 -34 255 -34q260 2 450 57q199 58 322 167q59 52 59 171q0 62 -29 117h184q19 -75 19 -165z" />
<glyph unicode="&#x67e;" horiz-adv-x="570" arabic-form="initial" d="M299 86q-72 -86 -229 -86h-90v184h35q99 0 143 44q49 49 49 155v217h184v-217q0 -187 -92 -297zM224 -350h150v-150h-150v150zM349 -100h150v-150h-150v150zM99 -100h150v-150h-150v150z" />
<glyph unicode="&#x67e;" horiz-adv-x="618" arabic-form="medial" d="M299 86q-77 -86 -229 -86h-90v184h35q99 0 143 44q49 49 49 155v217h184v-217q0 -106 49 -155q44 -44 143 -44h55v-184h-110q-150 0 -229 86zM224 -350h150v-150h-150v150zM349 -100h150v-150h-150v150zM99 -100h150v-150h-150v150z" />
<glyph unicode="&#x680;" horiz-adv-x="1928" arabic-form="isolated" d="M950 -350h150v-150h-150v150zM950 -100h150v-150h-150v150zM700 -350h150v-150h-150v150zM700 -100h150v-150h-150v150zM1756 669q15 -90 15 -160q0 -135 -76 -236q-128 -171 -445 -235q-285 -58 -470 -58q-191 0 -320 38q-330 97 -330 365q0 138 63 230h184 q-65 -94 -65 -230q0 -125 203 -192q104 -34 255 -34q185 0 450 57q255 54 322 167q55 93 55 168q0 59 -25 120h184z" />
<glyph unicode="&#x680;" horiz-adv-x="2011" arabic-form="final" d="M950 -350h150v-150h-150v150zM950 -100h150v-150h-150v150zM700 -350h150v-150h-150v150zM700 -100h150v-150h-150v150zM1775 504q0 -208 70 -267q63 -53 126 -53h60v-184h-102q-116 0 -187 73q-80 83 -104 149q-155 -131 -388 -184q-259 -58 -470 -58q-196 0 -320 38 q-329 101 -330 365q-1 138 63 230h184q-65 -94 -65 -230q0 -125 203 -192q104 -34 255 -34q260 2 450 57q199 58 322 167q59 52 59 171q0 62 -29 117h184q19 -75 19 -165z" />
<glyph unicode="&#x680;" horiz-adv-x="570" arabic-form="initial" d="M299 86q-72 -86 -229 -86h-90v184h35q99 0 143 44q49 49 49 155v217h184v-217q0 -187 -92 -297zM349 -350h150v-150h-150v150zM349 -100h150v-150h-150v150zM99 -350h150v-150h-150v150zM99 -100h150v-150h-150v150z" />
<glyph unicode="&#x680;" horiz-adv-x="618" arabic-form="medial" d="M299 86q-77 -86 -229 -86h-90v184h35q99 0 143 44q49 49 49 155v217h184v-217q0 -106 49 -155q44 -44 143 -44h55v-184h-110q-150 0 -229 86zM349 -350h150v-150h-150v150zM349 -100h150v-150h-150v150zM99 -350h150v-150h-150v150zM99 -100h150v-150h-150v150z" />
<glyph unicode="&#x67a;" horiz-adv-x="1928" arabic-form="isolated" d="M825 800h150v-150h-150v150zM825 1050h150v-150h-150v150zM1756 669q15 -90 15 -160q0 -135 -76 -236q-128 -171 -445 -235q-285 -58 -470 -58q-191 0 -320 38q-330 97 -330 365q0 138 63 230h184q-65 -94 -65 -230q0 -125 203 -192q104 -34 255 -34q185 0 450 57 q255 54 322 167q55 93 55 168q0 59 -25 120h184z" />
<glyph unicode="&#x67a;" horiz-adv-x="2011" arabic-form="final" d="M825 800h150v-150h-150v150zM825 1050h150v-150h-150v150zM1775 504q0 -208 70 -267q63 -53 126 -53h60v-184h-102q-116 0 -187 73q-80 83 -104 149q-155 -131 -388 -184q-259 -58 -470 -58q-196 0 -320 38q-329 101 -330 365q-1 138 63 230h184q-65 -94 -65 -230 q0 -125 203 -192q104 -34 255 -34q260 2 450 57q199 58 322 167q59 52 59 171q0 62 -29 117h184q19 -75 19 -165z" />
<glyph unicode="&#x67a;" horiz-adv-x="570" arabic-form="initial" d="M299 86q-72 -86 -229 -86h-90v184h35q99 0 143 44q49 49 49 155v217h184v-217q0 -187 -92 -297zM224 1000h150v-150h-150v150zM224 1250h150v-150h-150v150z" />
<glyph unicode="&#x67a;" horiz-adv-x="618" arabic-form="medial" d="M299 86q-77 -86 -229 -86h-90v184h35q99 0 143 44q49 49 49 155v217h184v-217q0 -106 49 -155q44 -44 143 -44h55v-184h-110q-150 0 -229 86zM224 1000h150v-150h-150v150zM224 1250h150v-150h-150v150z" />
<glyph unicode="&#x67f;" horiz-adv-x="1928" arabic-form="isolated" d="M950 800h150v-150h-150v150zM950 1050h150v-150h-150v150zM700 800h150v-150h-150v150zM700 1050h150v-150h-150v150zM1756 669q15 -90 15 -160q0 -135 -76 -236q-128 -171 -445 -235q-285 -58 -470 -58q-191 0 -320 38q-330 97 -330 365q0 138 63 230h184 q-65 -94 -65 -230q0 -125 203 -192q104 -34 255 -34q185 0 450 57q255 54 322 167q55 93 55 168q0 59 -25 120h184z" />
<glyph unicode="&#x67f;" horiz-adv-x="2011" arabic-form="final" d="M1775 504q0 -208 70 -267q63 -53 126 -53h60v-184h-102q-116 0 -187 73q-80 83 -104 149q-155 -131 -388 -184q-259 -58 -470 -58q-196 0 -320 38q-329 101 -330 365q-1 138 63 230h184q-65 -94 -65 -230q0 -125 203 -192q104 -34 255 -34q260 2 450 57q199 58 322 167 q59 52 59 171q0 62 -29 117h184q19 -75 19 -165zM950 800h150v-150h-150v150zM950 1050h150v-150h-150v150zM700 800h150v-150h-150v150zM700 1050h150v-150h-150v150z" />
<glyph unicode="&#x67f;" horiz-adv-x="570" arabic-form="initial" d="M299 86q-72 -86 -229 -86h-90v184h35q99 0 143 44q49 49 49 155v217h184v-217q0 -187 -92 -297zM349 1000h150v-150h-150v150zM349 1250h150v-150h-150v150zM99 1000h150v-150h-150v150zM99 1250h150v-150h-150v150z" />
<glyph unicode="&#x67f;" horiz-adv-x="618" arabic-form="medial" d="M299 86q-77 -86 -229 -86h-90v184h35q99 0 143 44q49 49 49 155v217h184v-217q0 -106 49 -155q44 -44 143 -44h55v-184h-110q-150 0 -229 86zM349 1000h150v-150h-150v150zM349 1250h150v-150h-150v150zM99 1000h150v-150h-150v150zM99 1250h150v-150h-150v150z" />
<glyph unicode="&#x679;" horiz-adv-x="1928" arabic-form="isolated" d="M849 778h55q78 0 100 13q53 33 53 54q0 32 -30 48q-1 1 -72 -27q-52 -21 -106 -88zM927 677h-175h-112v101h81v399h102v-321q36 73 140 113q63 24 133 -2q65 -25 65 -107q0 -91 -64 -141q-54 -42 -170 -42zM1756 669q15 -90 15 -160q0 -135 -76 -236q-128 -171 -445 -235 q-285 -58 -470 -58q-191 0 -320 38q-330 97 -330 365q0 138 63 230h184q-65 -94 -65 -230q0 -125 203 -192q104 -34 255 -34q185 0 450 57q255 54 322 167q55 93 55 168q0 59 -25 120h184z" />
<glyph unicode="&#x679;" horiz-adv-x="2011" arabic-form="final" d="M1775 504q0 -208 70 -267q63 -53 126 -53h60v-184h-102q-116 0 -187 73q-80 83 -104 149q-155 -131 -388 -184q-259 -58 -470 -58q-196 0 -320 38q-329 101 -330 365q-1 138 63 230h184q-65 -94 -65 -230q0 -125 203 -192q104 -34 255 -34q260 2 450 57q199 58 322 167 q59 52 59 171q0 62 -29 117h184q19 -75 19 -165zM849 778h55q78 0 100 13q53 33 53 54q0 32 -30 48q-1 1 -72 -27q-52 -21 -106 -88zM927 677h-175h-112v101h81v399h102v-321q36 73 140 113q63 24 133 -2q65 -25 65 -107q0 -91 -64 -141q-54 -42 -170 -42z" />
<glyph unicode="&#x679;" horiz-adv-x="570" arabic-form="initial" d="M299 86q-72 -86 -229 -86h-90v184h35q99 0 143 44q49 49 49 155v217h184v-217q0 -187 -92 -297zM248 978h55q78 0 100 13q53 33 53 54q0 32 -30 48q-1 1 -72 -27q-52 -21 -106 -88zM326 877h-175h-112v101h81v399h102v-321q36 73 140 113q63 24 133 -2q65 -25 65 -107 q0 -91 -64 -141q-54 -42 -170 -42z" />
<glyph unicode="&#x679;" horiz-adv-x="618" arabic-form="medial" d="M299 86q-77 -86 -229 -86h-90v184h35q99 0 143 44q49 49 49 155v217h184v-217q0 -106 49 -155q44 -44 143 -44h55v-184h-110q-150 0 -229 86zM248 978h55q78 0 100 13q53 33 53 54q0 32 -30 48q-1 1 -72 -27q-52 -21 -106 -88zM326 877h-175h-112v101h81v399h102v-321 q36 73 140 113q63 24 133 -2q65 -25 65 -107q0 -91 -64 -141q-54 -42 -170 -42z" />
<glyph unicode="&#x6a4;" horiz-adv-x="2123" arabic-form="isolated" d="M1525 1550h150v-150h-150v150zM1650 1300h150v-150h-150v150zM1400 1300h150v-150h-150v150zM1717 537q41 43 41 120q0 59 -66 110q-31 25 -75 24q-52 -1 -92 -43q-40 -41 -41 -92q0 -80 55 -118q40 -25 82 -25q72 0 96 24zM1872 219q-110 -180 -427 -250 q-273 -61 -560 -61q-295 0 -425 41q-329 100 -330 365q-1 138 63 230h184q-65 -94 -65 -230q0 -116 203 -192q90 -34 370 -34q321 0 530 57q215 59 315 167q35 38 55 116q-63 -75 -185 -75q-133 0 -208 67q-98 87 -98 216q0 52 8 96q23 148 173 217q78 36 154 36 q90 0 156 -50q96 -72 142 -174q24 -54 23 -191q-2 -226 -78 -351z" />
<glyph unicode="&#x6a4;" horiz-adv-x="2120" arabic-form="final" d="M1656 36q-104 -43 -214 -67q-280 -60 -552 -60q-305 1 -430 40q-329 103 -330 365q-1 138 63 230h184q-65 -94 -65 -230q0 -115 203 -192q81 -31 380 -31q232 0 517 54l28 4q-34 27 -63 71q-82 124 -82 245q0 31 4 67q22 155 210 230q58 23 110 23q82 0 163 -50 q137 -83 155 -233q4 -37 4 -67q0 -144 -80 -250q9 -1 16 -1h263v-184h-268q-105 0 -216 36zM1656 223q104 65 104 187q0 20 -5 47q-14 71 -66 110q-34 25 -74 25q-24 0 -46 -10q-61 -25 -80 -85q-6 -19 -6 -37q0 -56 41 -122q49 -78 132 -115zM1525 1350h150v-150h-150v150z M1650 1100h150v-150h-150v150zM1400 1100h150v-150h-150v150z" />
<glyph unicode="&#x6a4;" horiz-adv-x="979" arabic-form="initial" d="M598 537q41 43 41 120q0 59 -66 110q-31 25 -75 24q-52 -1 -92 -43q-40 -41 -41 -92q0 -80 55 -118q40 -25 82 -25q72 0 96 24zM-20 184h241q84 0 235 23q79 12 139 105q31 48 46 98q-63 -55 -160 -57q-130 -2 -208 67q-98 87 -98 216q0 52 8 96q23 148 173 217 q78 36 154 36q90 0 156 -50q96 -72 142 -174q23 -51 23 -191q0 -208 -78 -351q-74 -136 -198 -180q-109 -39 -254 -39h-321v184zM425 1550h150v-150h-150v150zM550 1300h150v-150h-150v150zM300 1300h150v-150h-150v150z" />
<glyph unicode="&#x6a4;" horiz-adv-x="1036" arabic-form="medial" d="M614 762q183 -80 207 -230q8 -50 8 -92q0 -73 -21 -122q-29 -67 -65 -117q39 -17 186 -17h127v-184h-217q-136 0 -321 57q-185 -57 -321 -57h-217v184h127q147 0 186 17q-29 40 -65 117q-21 46 -21 122q0 44 8 92q23 143 208 230q30 14 95 14q63 0 96 -14zM518 592 q-15 0 -33 -10q-56 -32 -80 -85q-10 -21 -10 -50q0 -43 24 -96q31 -68 99 -90q63 21 99 90q25 50 25 96q0 24 -11 50q-23 52 -80 85q-19 10 -33 10zM443 1400h150v-150h-150v150zM568 1150h150v-150h-150v150zM318 1150h150v-150h-150v150z" />
<glyph unicode="&#x6a6;" horiz-adv-x="2123" arabic-form="isolated" d="M1650 1300h150v-150h-150v150zM1650 1550h150v-150h-150v150zM1400 1300h150v-150h-150v150zM1400 1550h150v-150h-150v150zM1717 537q41 43 41 120q0 59 -66 110q-31 25 -75 24q-52 -1 -92 -43q-40 -41 -41 -92q0 -80 55 -118q40 -25 82 -25q72 0 96 24zM1872 219 q-110 -180 -427 -250q-273 -61 -560 -61q-295 0 -425 41q-329 100 -330 365q-1 138 63 230h184q-65 -94 -65 -230q0 -116 203 -192q90 -34 370 -34q321 0 530 57q215 59 315 167q35 38 55 116q-63 -75 -185 -75q-133 0 -208 67q-98 87 -98 216q0 52 8 96q23 148 173 217 q78 36 154 36q90 0 156 -50q96 -72 142 -174q24 -54 23 -191q-2 -226 -78 -351z" />
<glyph unicode="&#x6a6;" horiz-adv-x="2120" arabic-form="final" d="M1656 36q-104 -43 -214 -67q-280 -60 -552 -60q-305 1 -430 40q-329 103 -330 365q-1 138 63 230h184q-65 -94 -65 -230q0 -115 203 -192q81 -31 380 -31q232 0 517 54l28 4q-34 27 -63 71q-82 124 -82 245q0 31 4 67q22 155 210 230q58 23 110 23q82 0 163 -50 q137 -83 155 -233q4 -37 4 -67q0 -144 -80 -250q9 -1 16 -1h263v-184h-268q-105 0 -216 36zM1656 223q104 65 104 187q0 20 -5 47q-14 71 -66 110q-34 25 -74 25q-24 0 -46 -10q-61 -25 -80 -85q-6 -19 -6 -37q0 -56 41 -122q49 -78 132 -115zM1650 1100h150v-150h-150v150z M1650 1350h150v-150h-150v150zM1400 1100h150v-150h-150v150zM1400 1350h150v-150h-150v150z" />
<glyph unicode="&#x6a6;" horiz-adv-x="979" arabic-form="initial" d="M598 537q41 43 41 120q0 59 -66 110q-31 25 -75 24q-52 -1 -92 -43q-40 -41 -41 -92q0 -80 55 -118q40 -25 82 -25q72 0 96 24zM-20 184h241q84 0 235 23q79 12 139 105q31 48 46 98q-63 -55 -160 -57q-130 -2 -208 67q-98 87 -98 216q0 52 8 96q23 148 173 217 q78 36 154 36q90 0 156 -50q96 -72 142 -174q23 -51 23 -191q0 -208 -78 -351q-74 -136 -198 -180q-109 -39 -254 -39h-321v184zM550 1300h150v-150h-150v150zM550 1550h150v-150h-150v150zM300 1300h150v-150h-150v150zM300 1550h150v-150h-150v150z" />
<glyph unicode="&#x6a6;" horiz-adv-x="1036" arabic-form="medial" d="M614 762q183 -80 207 -230q8 -50 8 -92q0 -73 -21 -122q-29 -67 -65 -117q39 -17 186 -17h127v-184h-217q-136 0 -321 57q-185 -57 -321 -57h-217v184h127q147 0 186 17q-29 40 -65 117q-21 46 -21 122q0 44 8 92q23 143 208 230q30 14 95 14q63 0 96 -14zM518 592 q-15 0 -33 -10q-56 -32 -80 -85q-10 -21 -10 -50q0 -43 24 -96q31 -68 99 -90q63 21 99 90q25 50 25 96q0 24 -11 50q-23 52 -80 85q-19 10 -33 10zM568 1150h150v-150h-150v150zM568 1400h150v-150h-150v150zM318 1150h150v-150h-150v150zM318 1400h150v-150h-150v150z" />
<glyph unicode="&#x684;" horiz-adv-x="1322" arabic-form="isolated" d="M775 75h150v-150h-150v150zM775 325h150v-150h-150v150zM157 807q276 63 471 63q292 0 488 -54v-154q-294 0 -509 -167q-224 -174 -224 -435q0 -135 74 -231q127 -164 458 -164q193 0 405 118v-184q-150 -99 -400 -99q-418 0 -587 194q-131 150 -131 374q0 258 212 481 q96 101 233 153q-101 0 -260 -19q-126 -15 -230 -60v184z" />
<glyph unicode="&#x684;" horiz-adv-x="1322" arabic-form="final" d="M675 25h150v-150h-150v150zM675 275h150v-150h-150v150zM1302 184h40v-184h-49q-129 0 -252 150q-82 100 -143 256q-6 15 -79 193q-114 -24 -212 -104q-224 -183 -224 -435q0 -137 74 -231q129 -164 458 -164q193 0 405 118v-184q-150 -99 -400 -99q-418 0 -587 194 q-131 150 -131 374q0 258 212 481q96 101 233 153h-25q-95 0 -235 -19q-135 -19 -230 -60v184q272 63 465 63q294 0 494 -54v-154q-109 0 -140 -13l29 -91q51 -160 123 -255q90 -119 174 -119z" />
<glyph unicode="&#x684;" horiz-adv-x="1266" arabic-form="initial" d="M851 541q-83 23 -186 46q-85 19 -265 35q-82 7 -243 1v184q72 7 147 8q162 0 334 -35q258 -52 478 -150v-154q-76 -24 -164 -76q-166 -98 -240 -164q-145 -129 -220 -156q-221 -80 -384 -80h-128v184h100q227 0 356 72q104 58 220 164q94 86 195 121zM525 -300h150v-150 h-150v150zM525 -50h150v-150h-150v150z" />
<glyph unicode="&#x684;" horiz-adv-x="1322" arabic-form="medial" d="M638 780q258 -52 478 -150v-154q-65 -20 -138 -61q50 -78 80 -112q104 -119 218 -119h66v-184h-86q-209 0 -335 168q-40 54 -99 151q-69 -46 -110 -83q-145 -129 -220 -156q-221 -80 -384 -80h-128v184h100q227 0 356 72q104 58 220 164q94 86 195 121q-83 23 -186 46 q-85 19 -265 35q-82 7 -243 1v184q72 7 147 8q162 0 334 -35zM525 -300h150v-150h-150v150zM525 -50h150v-150h-150v150z" />
<glyph unicode="&#x683;" horiz-adv-x="1322" arabic-form="isolated" d="M900 175h150v-150h-150v150zM650 175h150v-150h-150v150zM157 807q276 63 471 63q292 0 488 -54v-154q-294 0 -509 -167q-224 -174 -224 -435q0 -135 74 -231q127 -164 458 -164q193 0 405 118v-184q-150 -99 -400 -99q-418 0 -587 194q-131 150 -131 374q0 258 212 481 q96 101 233 153q-101 0 -260 -19q-126 -15 -230 -60v184z" />
<glyph unicode="&#x683;" horiz-adv-x="1322" arabic-form="final" d="M800 125h150v-150h-150v150zM550 125h150v-150h-150v150zM1302 184h40v-184h-49q-129 0 -252 150q-82 100 -143 256q-6 15 -79 193q-114 -24 -212 -104q-224 -183 -224 -435q0 -137 74 -231q129 -164 458 -164q193 0 405 118v-184q-150 -99 -400 -99q-418 0 -587 194 q-131 150 -131 374q0 258 212 481q96 101 233 153h-25q-95 0 -235 -19q-135 -19 -230 -60v184q272 63 465 63q294 0 494 -54v-154q-109 0 -140 -13l29 -91q51 -160 123 -255q90 -119 174 -119z" />
<glyph unicode="&#x683;" horiz-adv-x="1266" arabic-form="initial" d="M851 541q-83 23 -186 46q-85 19 -265 35q-82 7 -243 1v184q72 7 147 8q162 0 334 -35q258 -52 478 -150v-154q-76 -24 -164 -76q-166 -98 -240 -164q-145 -129 -220 -156q-221 -80 -384 -80h-128v184h100q227 0 356 72q104 58 220 164q94 86 195 121zM650 -50h150v-150 h-150v150zM400 -50h150v-150h-150v150z" />
<glyph unicode="&#x683;" horiz-adv-x="1322" arabic-form="medial" d="M638 780q258 -52 478 -150v-154q-65 -20 -138 -61q50 -78 80 -112q104 -119 218 -119h66v-184h-86q-209 0 -335 168q-40 54 -99 151q-69 -46 -110 -83q-145 -129 -220 -156q-221 -80 -384 -80h-128v184h100q227 0 356 72q104 58 220 164q94 86 195 121q-83 23 -186 46 q-85 19 -265 35q-82 7 -243 1v184q72 7 147 8q162 0 334 -35zM650 -50h150v-150h-150v150zM400 -50h150v-150h-150v150z" />
<glyph unicode="&#x686;" horiz-adv-x="1322" arabic-form="isolated" d="M787 50h150v-150h-150v150zM912 300h150v-150h-150v150zM662 300h150v-150h-150v150zM157 807q276 63 471 63q292 0 488 -54v-154q-294 0 -509 -167q-224 -174 -224 -435q0 -135 74 -231q127 -164 458 -164q193 0 405 118v-184q-150 -99 -400 -99q-418 0 -587 194 q-131 150 -131 374q0 258 212 481q96 101 233 153q-101 0 -260 -19q-126 -15 -230 -60v184z" />
<glyph unicode="&#x686;" horiz-adv-x="1322" arabic-form="final" d="M662 -50h150v-150h-150v150zM787 200h150v-150h-150v150zM537 200h150v-150h-150v150zM1302 184h40v-184h-49q-129 0 -252 150q-82 100 -143 256q-6 15 -79 193q-114 -24 -212 -104q-224 -183 -224 -435q0 -137 74 -231q129 -164 458 -164q193 0 405 118v-184 q-150 -99 -400 -99q-418 0 -587 194q-131 150 -131 374q0 258 212 481q96 101 233 153h-25q-95 0 -235 -19q-135 -19 -230 -60v184q272 63 465 63q294 0 494 -54v-154q-109 0 -140 -13l29 -91q51 -160 123 -255q90 -119 174 -119z" />
<glyph unicode="&#x686;" horiz-adv-x="1266" arabic-form="initial" d="M851 541q-83 23 -186 46q-85 19 -265 35q-82 7 -243 1v184q72 7 147 8q162 0 334 -35q258 -52 478 -150v-154q-76 -24 -164 -76q-166 -98 -240 -164q-145 -129 -220 -156q-221 -80 -384 -80h-128v184h100q227 0 356 72q104 58 220 164q94 86 195 121zM525 -300h150v-150 h-150v150zM650 -50h150v-150h-150v150zM400 -50h150v-150h-150v150z" />
<glyph unicode="&#x686;" horiz-adv-x="1322" arabic-form="medial" d="M638 780q258 -52 478 -150v-154q-65 -20 -138 -61q50 -78 80 -112q104 -119 218 -119h66v-184h-86q-209 0 -335 168q-40 54 -99 151q-69 -46 -110 -83q-145 -129 -220 -156q-221 -80 -384 -80h-128v184h100q227 0 356 72q104 58 220 164q94 86 195 121q-83 23 -186 46 q-85 19 -265 35q-82 7 -243 1v184q72 7 147 8q162 0 334 -35zM525 -300h150v-150h-150v150zM650 -50h150v-150h-150v150zM400 -50h150v-150h-150v150z" />
<glyph unicode="&#x687;" horiz-adv-x="1322" arabic-form="isolated" d="M912 75h150v-150h-150v150zM912 325h150v-150h-150v150zM662 75h150v-150h-150v150zM662 325h150v-150h-150v150zM157 807q276 63 471 63q292 0 488 -54v-154q-294 0 -509 -167q-224 -174 -224 -435q0 -135 74 -231q127 -164 458 -164q193 0 405 118v-184 q-150 -99 -400 -99q-418 0 -587 194q-131 150 -131 374q0 258 212 481q96 101 233 153q-101 0 -260 -19q-126 -15 -230 -60v184z" />
<glyph unicode="&#x687;" horiz-adv-x="1322" arabic-form="final" d="M787 -50h150v-150h-150v150zM787 200h150v-150h-150v150zM537 -50h150v-150h-150v150zM537 200h150v-150h-150v150zM1302 184h40v-184h-49q-129 0 -252 150q-82 100 -143 256q-6 15 -79 193q-114 -24 -212 -104q-224 -183 -224 -435q0 -137 74 -231q129 -164 458 -164 q193 0 405 118v-184q-150 -99 -400 -99q-418 0 -587 194q-131 150 -131 374q0 258 212 481q96 101 233 153h-25q-95 0 -235 -19q-135 -19 -230 -60v184q272 63 465 63q294 0 494 -54v-154q-109 0 -140 -13l29 -91q51 -160 123 -255q90 -119 174 -119z" />
<glyph unicode="&#x687;" horiz-adv-x="1266" arabic-form="initial" d="M851 541q-83 23 -186 46q-85 19 -265 35q-82 7 -243 1v184q72 7 147 8q162 0 334 -35q258 -52 478 -150v-154q-76 -24 -164 -76q-166 -98 -240 -164q-145 -129 -220 -156q-221 -80 -384 -80h-128v184h100q227 0 356 72q104 58 220 164q94 86 195 121zM650 -300h150v-150 h-150v150zM650 -50h150v-150h-150v150zM400 -300h150v-150h-150v150zM400 -50h150v-150h-150v150z" />
<glyph unicode="&#x687;" horiz-adv-x="1322" arabic-form="medial" d="M638 780q258 -52 478 -150v-154q-65 -20 -138 -61q50 -78 80 -112q104 -119 218 -119h66v-184h-86q-209 0 -335 168q-40 54 -99 151q-69 -46 -110 -83q-145 -129 -220 -156q-221 -80 -384 -80h-128v184h100q227 0 356 72q104 58 220 164q94 86 195 121q-83 23 -186 46 q-85 19 -265 35q-82 7 -243 1v184q72 7 147 8q162 0 334 -35zM650 -300h150v-150h-150v150zM650 -50h150v-150h-150v150zM400 -300h150v-150h-150v150zM400 -50h150v-150h-150v150z" />
<glyph unicode="&#x68d;" horiz-adv-x="912" arabic-form="isolated" d="M549 -150h150v-150h-150v150zM299 -150h150v-150h-150v150zM391 151q172 49 207 161q8 27 8 69q0 78 -60 194q-66 129 -239 275h227q113 -91 179 -215q82 -152 82 -257q0 -99 -32 -174q-80 -194 -342 -235q-46 -7 -91 -7q-102 0 -205 38v184q115 -42 199 -42q33 0 67 9z " />
<glyph unicode="&#x68d;" horiz-adv-x="1075" arabic-form="final" d="M549 -150h150v-150h-150v150zM299 -150h150v-150h-150v150zM546 575q-57 122 -239 275h227q97 -78 179 -215q81 -134 81 -251q0 -73 83 -156q44 -44 143 -44h75v-184h-130q-147 0 -244 130q-93 -128 -300 -161q-46 -7 -91 -7q-102 0 -205 38v184q115 -42 199 -42 q33 0 67 9q172 49 207 161q8 27 8 69q0 68 -60 194z" />
<glyph unicode="&#x68c;" horiz-adv-x="912" arabic-form="isolated" d="M500 1200h150v-150h-150v150zM250 1200h150v-150h-150v150zM391 151q172 49 207 161q8 27 8 69q0 78 -60 194q-66 129 -239 275h227q113 -91 179 -215q82 -152 82 -257q0 -99 -32 -174q-80 -194 -342 -235q-46 -7 -91 -7q-102 0 -205 38v184q115 -42 199 -42q33 0 67 9z " />
<glyph unicode="&#x68c;" horiz-adv-x="1075" arabic-form="final" d="M500 1200h150v-150h-150v150zM250 1200h150v-150h-150v150zM546 575q-57 122 -239 275h227q97 -78 179 -215q81 -134 81 -251q0 -73 83 -156q44 -44 143 -44h75v-184h-130q-147 0 -244 130q-93 -128 -300 -161q-46 -7 -91 -7q-102 0 -205 38v184q115 -42 199 -42 q33 0 67 9q172 49 207 161q8 27 8 69q0 68 -60 194z" />
<glyph unicode="&#x68e;" horiz-adv-x="912" arabic-form="isolated" d="M375 1450h150v-150h-150v150zM500 1200h150v-150h-150v150zM250 1200h150v-150h-150v150zM391 151q172 49 207 161q8 27 8 69q0 78 -60 194q-66 129 -239 275h227q113 -91 179 -215q82 -152 82 -257q0 -99 -32 -174q-80 -194 -342 -235q-46 -7 -91 -7q-102 0 -205 38v184 q115 -42 199 -42q33 0 67 9z" />
<glyph unicode="&#x68e;" horiz-adv-x="1075" arabic-form="final" d="M375 1450h150v-150h-150v150zM500 1200h150v-150h-150v150zM250 1200h150v-150h-150v150zM546 575q-57 122 -239 275h227q97 -78 179 -215q81 -134 81 -251q0 -73 83 -156q44 -44 143 -44h75v-184h-130q-147 0 -244 130q-93 -128 -300 -161q-46 -7 -91 -7q-102 0 -205 38 v184q115 -42 199 -42q33 0 67 9q172 49 207 161q8 27 8 69q0 68 -60 194z" />
<glyph unicode="&#x688;" horiz-adv-x="912" arabic-form="isolated" d="M399 1128h55q78 0 100 13q53 33 53 54q0 32 -30 48q-1 1 -72 -27q-52 -21 -106 -88zM477 1027h-175h-112v101h81v399h102v-321q36 73 140 113q63 24 133 -2q65 -25 65 -107q0 -91 -64 -141q-54 -42 -170 -42zM391 151q172 49 207 161q8 27 8 69q0 78 -60 194 q-66 129 -239 275h227q113 -91 179 -215q82 -152 82 -257q0 -99 -32 -174q-80 -194 -342 -235q-46 -7 -91 -7q-102 0 -205 38v184q115 -42 199 -42q33 0 67 9z" />
<glyph unicode="&#x688;" horiz-adv-x="1075" arabic-form="final" d="M399 1128h55q78 0 100 13q53 33 53 54q0 32 -30 48q-1 1 -72 -27q-52 -21 -106 -88zM477 1027h-175h-112v101h81v399h102v-321q36 73 140 113q63 24 133 -2q65 -25 65 -107q0 -91 -64 -141q-54 -42 -170 -42zM546 575q-57 122 -239 275h227q97 -78 179 -215 q81 -134 81 -251q0 -73 83 -156q44 -44 143 -44h75v-184h-130q-147 0 -244 130q-93 -128 -300 -161q-46 -7 -91 -7q-102 0 -205 38v184q115 -42 199 -42q33 0 67 9q172 49 207 161q8 27 8 69q0 68 -60 194z" />
<glyph unicode="&#x698;" horiz-adv-x="989" arabic-form="isolated" d="M625 1200h150v-150h-150v150zM750 950h150v-150h-150v150zM500 950h150v-150h-150v150zM675 158q10 58 10 130q0 126 -53 262h184q50 -118 50 -250q0 -82 -8 -144q-46 -350 -337 -505q-284 -151 -606 -151v184q304 0 507 128q218 138 253 346z" />
<glyph unicode="&#x698;" horiz-adv-x="1130" arabic-form="final" d="M632 550h184q30 -112 33 -142q10 -103 83 -180q42 -44 143 -44h75v-184h-130q-130 0 -180 62q-68 -278 -319 -411q-284 -151 -606 -151v184q304 0 507 128q218 138 253 346q10 58 10 130q0 126 -53 262zM625 1200h150v-150h-150v150zM750 950h150v-150h-150v150zM500 950 h150v-150h-150v150z" />
<glyph unicode="&#x691;" horiz-adv-x="989" arabic-form="isolated" d="M675 158q10 58 10 130q0 126 -53 262h184q50 -118 50 -250q0 -82 -8 -144q-46 -350 -337 -505q-284 -151 -606 -151v184q304 0 507 128q218 138 253 346zM649 928h55q78 0 100 13q53 33 53 54q0 32 -30 48q-1 1 -72 -27q-52 -21 -106 -88zM727 827h-175h-112v101h81v399 h102v-321q36 73 140 113q63 24 133 -2q65 -25 65 -107q0 -91 -64 -141q-54 -42 -170 -42z" />
<glyph unicode="&#x691;" horiz-adv-x="1130" arabic-form="final" d="M632 550h184q30 -112 33 -142q10 -103 83 -180q42 -44 143 -44h75v-184h-130q-130 0 -180 62q-68 -278 -319 -411q-284 -151 -606 -151v184q304 0 507 128q218 138 253 346q10 58 10 130q0 126 -53 262zM649 928h55q78 0 100 13q53 33 53 54q0 32 -30 48q-1 1 -72 -27 q-52 -21 -106 -88zM727 827h-175h-112v101h81v399h102v-321q36 73 140 113q63 24 133 -2q65 -25 65 -107q0 -91 -64 -141q-54 -42 -170 -42z" />
<glyph unicode="&#x6a9;" horiz-adv-x="1833" arabic-form="isolated" d="M770 88q184 0 378 80q157 65 193 120q16 26 16 72q0 69 -54 135l-310 380q-50 61 -50 142q0 35 10 68q35 119 135 161l745 310v-186l-595 -250q-71 -30 -92 -70q-6 -11 -6 -36q0 -32 31 -69l275 -330q102 -123 102 -246q0 -113 -62 -214q-53 -86 -318 -171 q-227 -73 -388 -73q-192 0 -320 38q-330 98 -330 365q0 138 63 230h184q-65 -94 -65 -230q0 -126 203 -192q104 -34 255 -34z" />
<glyph unicode="&#x6a9;" horiz-adv-x="1833" arabic-form="final" d="M1436 120q-99 -76 -268 -136q-205 -73 -388 -73q-192 0 -320 38q-330 98 -330 365q0 138 63 230h184q-65 -94 -65 -230q0 -126 203 -192q104 -34 255 -34q184 0 378 80q158 65 193 120q16 26 16 72q0 69 -54 135l-310 380q-50 61 -50 142q0 35 10 68q35 119 135 161 l745 310v-186l-595 -250q-71 -30 -92 -70q-6 -11 -6 -36q0 -32 31 -69l583 -705q22 -26 60 -40q43 -16 107 -16h88v-184h-132q-65 0 -123 24q-103 43 -136 84l-97 120q-25 -64 -85 -108z" />
<glyph unicode="&#x6a9;" horiz-adv-x="975" arabic-form="initial" d="M310 0h-330v184h310q148 0 193 104q16 36 16 72q0 69 -54 135l-310 380q-50 61 -50 142q0 35 10 68q31 118 135 161l745 310v-186l-595 -250q-71 -30 -92 -70q-6 -11 -6 -36q0 -32 31 -69l275 -330q102 -123 102 -246q0 -113 -62 -214q-95 -155 -318 -155z" />
<glyph unicode="&#x6a9;" horiz-adv-x="1131" arabic-form="medial" d="M310 0h-330v184h310q148 0 193 104q16 36 16 72q0 69 -54 135l-310 380q-50 61 -50 142q0 35 10 68q31 118 135 161l745 310v-186l-595 -250q-71 -30 -92 -70q-6 -11 -6 -36q0 -32 31 -69l583 -705q22 -26 60 -40q43 -16 107 -16h88v-184h-132q-65 0 -123 24 q-103 43 -136 84l-97 120q-21 -46 -38 -73q-95 -155 -315 -155z" />
<glyph unicode="&#x6af;" horiz-adv-x="1833" arabic-form="isolated" d="M1833 1685l-863 -354v150l863 354v-150zM770 88q184 0 378 80q157 65 193 120q16 26 16 72q0 69 -54 135l-310 380q-50 61 -50 142q0 35 10 68q35 119 135 161l745 310v-186l-595 -250q-71 -30 -92 -70q-6 -11 -6 -36q0 -32 31 -69l275 -330q102 -123 102 -246 q0 -113 -62 -214q-53 -86 -318 -171q-227 -73 -388 -73q-192 0 -320 38q-330 98 -330 365q0 138 63 230h184q-65 -94 -65 -230q0 -126 203 -192q104 -34 255 -34z" />
<glyph unicode="&#x6af;" horiz-adv-x="1833" arabic-form="final" d="M1436 120q-99 -76 -268 -136q-205 -73 -388 -73q-192 0 -320 38q-330 98 -330 365q0 138 63 230h184q-65 -94 -65 -230q0 -126 203 -192q104 -34 255 -34q184 0 378 80q158 65 193 120q16 26 16 72q0 69 -54 135l-310 380q-50 61 -50 142q0 35 10 68q35 119 135 161 l745 310v-186l-595 -250q-71 -30 -92 -70q-6 -11 -6 -36q0 -32 31 -69l583 -705q22 -26 60 -40q43 -16 107 -16h88v-184h-132q-65 0 -123 24q-103 43 -136 84l-97 120q-25 -64 -85 -108zM1833 1685l-863 -354v150l863 354v-150z" />
<glyph unicode="&#x6af;" horiz-adv-x="975" arabic-form="initial" d="M310 0h-330v184h310q148 0 193 104q16 36 16 72q0 69 -54 135l-310 380q-50 61 -50 142q0 35 10 68q31 118 135 161l745 310v-186l-595 -250q-71 -30 -92 -70q-6 -11 -6 -36q0 -32 31 -69l275 -330q102 -123 102 -246q0 -113 -62 -214q-95 -155 -318 -155zM975 1685 l-863 -354v150l863 354v-150z" />
<glyph unicode="&#x6af;" horiz-adv-x="1131" arabic-form="medial" d="M310 0h-330v184h310q148 0 193 104q16 36 16 72q0 69 -54 135l-310 380q-50 61 -50 142q0 35 10 68q31 118 135 161l745 310v-186l-595 -250q-71 -30 -92 -70q-6 -11 -6 -36q0 -32 31 -69l583 -705q22 -26 60 -40q43 -16 107 -16h88v-184h-132q-65 0 -123 24 q-103 43 -136 84l-97 120q-21 -46 -38 -73q-95 -155 -315 -155zM975 1685l-863 -354v150l863 354v-150z" />
<glyph unicode="&#x6b3;" horiz-adv-x="1833" arabic-form="isolated" d="M725 -450h150v-150h-150v150zM725 -200h150v-150h-150v150zM770 88q184 0 378 80q157 65 193 120q16 26 16 72q0 69 -54 135l-310 380q-50 61 -50 142q0 35 10 68q35 119 135 161l745 310v-186l-595 -250q-71 -30 -92 -70q-6 -11 -6 -36q0 -32 31 -69l275 -330 q102 -123 102 -246q0 -113 -62 -214q-53 -86 -318 -171q-227 -73 -388 -73q-192 0 -320 38q-330 98 -330 365q0 138 63 230h184q-65 -94 -65 -230q0 -126 203 -192q104 -34 255 -34zM1833 1685l-863 -354v150l863 354v-150z" />
<glyph unicode="&#x6b3;" horiz-adv-x="1833" arabic-form="final" d="M1436 120q-99 -76 -268 -136q-205 -73 -388 -73q-192 0 -320 38q-330 98 -330 365q0 138 63 230h184q-65 -94 -65 -230q0 -126 203 -192q104 -34 255 -34q184 0 378 80q158 65 193 120q16 26 16 72q0 69 -54 135l-310 380q-50 61 -50 142q0 35 10 68q35 119 135 161 l745 310v-186l-595 -250q-71 -30 -92 -70q-6 -11 -6 -36q0 -32 31 -69l583 -705q22 -26 60 -40q43 -16 107 -16h88v-184h-132q-65 0 -123 24q-103 43 -136 84l-97 120q-25 -64 -85 -108zM1833 1685l-863 -354v150l863 354v-150zM725 -450h150v-150h-150v150zM725 -200h150 v-150h-150v150z" />
<glyph unicode="&#x6b3;" horiz-adv-x="975" arabic-form="initial" d="M310 0h-330v184h310q148 0 193 104q16 36 16 72q0 69 -54 135l-310 380q-50 61 -50 142q0 35 10 68q31 118 135 161l745 310v-186l-595 -250q-71 -30 -92 -70q-6 -11 -6 -36q0 -32 31 -69l275 -330q102 -123 102 -246q0 -113 -62 -214q-95 -155 -318 -155zM975 1685 l-863 -354v150l863 354v-150zM325 -400h150v-150h-150v150zM325 -150h150v-150h-150v150z" />
<glyph unicode="&#x6b3;" horiz-adv-x="1131" arabic-form="medial" d="M310 0h-330v184h310q148 0 193 104q16 36 16 72q0 69 -54 135l-310 380q-50 61 -50 142q0 35 10 68q31 118 135 161l745 310v-186l-595 -250q-71 -30 -92 -70q-6 -11 -6 -36q0 -32 31 -69l583 -705q22 -26 60 -40q43 -16 107 -16h88v-184h-132q-65 0 -123 24 q-103 43 -136 84l-97 120q-21 -46 -38 -73q-95 -155 -315 -155zM975 1685l-863 -354v150l863 354v-150zM325 -400h150v-150h-150v150zM325 -150h150v-150h-150v150z" />
<glyph unicode="&#x6b1;" horiz-adv-x="1833" arabic-form="isolated" d="M1150 1850h150v-150h-150v150zM900 1850h150v-150h-150v150zM770 88q184 0 378 80q157 65 193 120q16 26 16 72q0 69 -54 135l-310 380q-50 61 -50 142q0 35 10 68q35 119 135 161l745 310v-186l-595 -250q-71 -30 -92 -70q-6 -11 -6 -36q0 -32 31 -69l275 -330 q102 -123 102 -246q0 -113 -62 -214q-53 -86 -318 -171q-227 -73 -388 -73q-192 0 -320 38q-330 98 -330 365q0 138 63 230h184q-65 -94 -65 -230q0 -126 203 -192q104 -34 255 -34zM1833 1685l-863 -354v150l863 354v-150z" />
<glyph unicode="&#x6b1;" horiz-adv-x="1833" arabic-form="final" d="M1436 120q-99 -76 -268 -136q-205 -73 -388 -73q-192 0 -320 38q-330 98 -330 365q0 138 63 230h184q-65 -94 -65 -230q0 -126 203 -192q104 -34 255 -34q184 0 378 80q158 65 193 120q16 26 16 72q0 69 -54 135l-310 380q-50 61 -50 142q0 35 10 68q35 119 135 161 l745 310v-186l-595 -250q-71 -30 -92 -70q-6 -11 -6 -36q0 -32 31 -69l583 -705q22 -26 60 -40q43 -16 107 -16h88v-184h-132q-65 0 -123 24q-103 43 -136 84l-97 120q-25 -64 -85 -108zM1833 1685l-863 -354v150l863 354v-150zM1150 1850h150v-150h-150v150zM900 1850h150 v-150h-150v150z" />
<glyph unicode="&#x6b1;" horiz-adv-x="975" arabic-form="initial" d="M310 0h-330v184h310q148 0 193 104q16 36 16 72q0 69 -54 135l-310 380q-50 61 -50 142q0 35 10 68q31 118 135 161l745 310v-186l-595 -250q-71 -30 -92 -70q-6 -11 -6 -36q0 -32 31 -69l275 -330q102 -123 102 -246q0 -113 -62 -214q-95 -155 -318 -155zM975 1685 l-863 -354v150l863 354v-150zM325 1850h150v-150h-150v150zM75 1850h150v-150h-150v150z" />
<glyph unicode="&#x6b1;" horiz-adv-x="1131" arabic-form="medial" d="M310 0h-330v184h310q148 0 193 104q16 36 16 72q0 69 -54 135l-310 380q-50 61 -50 142q0 35 10 68q31 118 135 161l745 310v-186l-595 -250q-71 -30 -92 -70q-6 -11 -6 -36q0 -32 31 -69l583 -705q22 -26 60 -40q43 -16 107 -16h88v-184h-132q-65 0 -123 24 q-103 43 -136 84l-97 120q-21 -46 -38 -73q-95 -155 -315 -155zM975 1685l-863 -354v150l863 354v-150zM325 1850h150v-150h-150v150zM75 1850h150v-150h-150v150z" />
<glyph unicode="&#x6ba;" horiz-adv-x="1504" arabic-form="isolated" d="M1352 312q0 -173 -100 -351q-110 -197 -359 -265q-97 -27 -177 -27q-132 0 -241 37q-328 106 -328 462q0 235 47 316h184q-49 -144 -49 -316q0 -237 201 -289q93 -24 186 -24q76 0 147 20q193 53 269 275q34 98 34 194q0 184 -102 406h184q104 -156 104 -438z" />
<glyph unicode="&#x6ba;" horiz-adv-x="1559" arabic-form="final" d="M1248 581q44 -97 71 -193q22 -80 72 -140q53 -64 113 -64h75v-184h-130q-71 0 -105 48q-3 -109 -92 -256q-120 -199 -359 -265q-97 -27 -189 -27q-116 0 -229 37q-328 107 -328 462q0 175 47 316h184q-49 -137 -49 -316q0 -236 201 -289q90 -24 166 -24q88 0 167 20 q194 48 269 275q33 101 33 213q0 184 -101 387h184z" />
<glyph unicode="&#x6bb;" horiz-adv-x="1504" arabic-form="isolated" d="M661 903h55q78 0 100 13q53 33 53 54q0 32 -30 48q-1 1 -72 -27q-52 -21 -106 -88zM739 802h-175h-112v101h81v399h102v-321q36 73 140 113q63 24 133 -2q65 -25 65 -107q0 -91 -64 -141q-54 -42 -170 -42zM1352 312q0 -173 -100 -351q-110 -197 -359 -265 q-97 -27 -177 -27q-132 0 -241 37q-328 106 -328 462q0 235 47 316h184q-49 -144 -49 -316q0 -237 201 -289q93 -24 186 -24q76 0 147 20q193 53 269 275q34 98 34 194q0 184 -102 406h184q104 -156 104 -438z" />
<glyph unicode="&#x6bb;" horiz-adv-x="1559" arabic-form="final" d="M1248 581q44 -97 71 -193q22 -80 72 -140q53 -64 113 -64h75v-184h-130q-71 0 -105 48q-3 -109 -92 -256q-120 -199 -359 -265q-97 -27 -189 -27q-116 0 -229 37q-328 107 -328 462q0 175 47 316h184q-49 -137 -49 -316q0 -236 201 -289q90 -24 166 -24q88 0 167 20 q194 48 269 275q33 101 33 213q0 184 -101 387h184zM661 653h55q78 0 100 13q53 33 53 54q0 32 -30 48q-1 1 -72 -27q-52 -21 -106 -88zM739 552h-175h-112v101h81v399h102v-321q36 73 140 113q63 24 133 -2q65 -25 65 -107q0 -91 -64 -141q-54 -42 -170 -42z" />
<glyph unicode="&#x6bb;" horiz-adv-x="570" arabic-form="initial" d="M299 86q-72 -86 -229 -86h-90v184h35q99 0 143 44q49 49 49 155v217h184v-217q0 -187 -92 -297zM248 978h55q78 0 100 13q53 33 53 54q0 32 -30 48q-1 1 -72 -27q-52 -21 -106 -88zM326 877h-175h-112v101h81v399h102v-321q36 73 140 113q63 24 133 -2q65 -25 65 -107 q0 -91 -64 -141q-54 -42 -170 -42z" />
<glyph unicode="&#x6bb;" horiz-adv-x="618" arabic-form="medial" d="M299 86q-77 -86 -229 -86h-90v184h35q99 0 143 44q49 49 49 155v217h184v-217q0 -106 49 -155q44 -44 143 -44h55v-184h-110q-150 0 -229 86zM248 978h55q78 0 100 13q53 33 53 54q0 32 -30 48q-1 1 -72 -27q-52 -21 -106 -88zM326 877h-175h-112v101h81v399h102v-321 q36 73 140 113q63 24 133 -2q65 -25 65 -107q0 -91 -64 -141q-54 -42 -170 -42z" />
<glyph unicode="&#x6be;" horiz-adv-x="1430" arabic-form="isolated" d="M863 493q0 135 -95 135q-65 0 -87.5 -44t-22.5 -76.5t7 -69.5q21 -118 89 -169q36 27 72.5 95t36.5 129zM755 24q-150 -79 -260 -79q-57 0 -158 32q-193 61 -193 233q0 74 16 128h184q-14 -62 -14 -102q0 -69 62 -88t89 -19q26 0 54 4.5t73 37.5q-72 66 -101 198 q-18 81 -18 153q0 74 44 155q45 83 112 83q7 0 14 -1q-44 39 -125 53v185q218 -66 439 -247q334 -273 334 -540q0 -103 -40 -164q-74 -113 -249 -113q-132 0 -263 91zM1013 508q6 -37 6 -76q0 -147 -98 -252l-29 -33q52 -46 101 -46q125 0 142 67q7 30 7 76.5t-31 120 t-98 143.5z" />
<glyph unicode="&#x6be;" horiz-adv-x="1294" arabic-form="final" d="M689 159q63 27 167 109t104 134q0 112 -84 112q-75 0 -149 -141q-38 -72 -38 -189v-25zM144 210q0 74 16 128h184q-14 -62 -14 -102q0 -69 62 -88t82 -19h31v55q0 265 138 392q116 107 246 107t198 -99q46 -67 46 -181q-21 -121 -115 -219h296v-184h-344 q163 -108 163 -221t-46 -179q-69 -99 -203 -99t-255 111t-121 334q-58 0 -171 31q-193 53 -193 233zM689 -17q0 -105 38 -172q80 -141 149 -141q84 0 84 112q0 52 -95.5 127.5t-137.5 87.5z" />
<glyph unicode="&#x6be;" horiz-adv-x="1080" arabic-form="initial" d="M404 269q36 27 70 91q39 72 39 133q0 46 -15 83q-22 52 -80 52q-65 0 -88 -45q-22 -43 -22 -78q0 -30 7 -67q21 -118 89 -169zM87 184q52 0 130 11q-45 105 -60 174q-18 78 -18 142q0 84 45 167q48 90 125 81q-44 39 -125 53v185q223 -68 439 -247q256 -209 320 -431 q14 -52 14 -109q0 -103 -40 -164q-74 -113 -249 -113q-131 0 -285 108q-120 -41 -266 -41h-137v184h107zM663 508q6 -37 6 -76q0 -147 -98 -252q-12 -14 -29 -33q52 -46 101 -46q125 0 142 67q7 30 7 63q0 60 -33 138q-29 69 -96 139z" />
<glyph unicode="&#x6be;" horiz-adv-x="944" arabic-form="medial" d="M339 184h19q42 0 138 76q114 90 114 142q0 112 -84 112q-75 0 -149 -141q-38 -72 -38 -189zM155 184q9 266 138 392q108 107 237 107q138 0 207 -99q46 -67 46 -181q0 -111 -163 -219h344v-184h-344q163 -108 163 -219q0 -114 -46 -181q-69 -99 -207 -99q-129 0 -237 107 q-129 128 -138 392h-175v184h175zM339 0q0 -117 38 -189q74 -141 149 -141q84 0 84 112q0 52 -114 142q-96 76 -138 76h-19z" />
<glyph unicode="&#x6ad;" horiz-adv-x="1688" arabic-form="isolated" d="M750 1750h150v-150h-150v150zM875 1500h150v-150h-150v150zM625 1500h150v-150h-150v150zM976 1135v-82q-74 -4 -112 -18q-80 -30 -80 -63q0 -28 14 -46q12 -16 80 -26q102 -15 102 -103q0 -110 -88 -152q-82 -39 -160 -39q-66 0 -122 11v88q68 -10 113 -10q60 0 117 26 q60 26 60 56q0 38 -78 55q-74 16 -92 44q-32 47 -31 93q2 81 77 119q85 43 200 47zM1219 281q76 73 76 330v945h184v-945q0 -327 -110 -450q-149 -167 -370 -198q-136 -19 -254 -18q-207 2 -308 32q-293 88 -293 283q0 75 16 128h184q-14 -58 -14 -102q2 -92 162 -138 q121 -35 248 -35q140 0 229 27q152 47 250 141z" />
<glyph unicode="&#x6ad;" horiz-adv-x="1726" arabic-form="final" d="M976 1135v-82q-74 -4 -112 -18q-80 -30 -80 -63q0 -28 14 -46q12 -16 80 -26q102 -15 102 -103q0 -110 -88 -152q-82 -39 -160 -39q-66 0 -122 11v88q68 -10 113 -10q60 0 117 26q60 26 60 56q0 38 -78 55q-74 16 -92 44q-32 47 -31 93q2 81 77 119q85 43 200 47z M999 -37q-109 -20 -254 -18q-207 2 -308 32q-293 88 -293 283q0 75 16 128h184q-14 -58 -14 -102q2 -92 162 -138q121 -35 248 -35q140 0 229 27q152 47 250 141q76 73 76 330v945h184v-1173q0 -106 49 -155q44 -44 143 -44h75v-184h-130q-153 0 -266 123 q-158 -126 -351 -160zM750 1750h150v-150h-150v150zM875 1500h150v-150h-150v150zM625 1500h150v-150h-150v150z" />
<glyph unicode="&#x6ad;" horiz-adv-x="975" arabic-form="initial" d="M310 0h-330v184h310q148 0 193 104q16 36 16 72q0 69 -54 135l-310 380q-50 61 -50 142q0 35 10 68q31 118 135 161l745 310v-186l-595 -250q-71 -30 -92 -70q-6 -11 -6 -36q0 -32 31 -69l275 -330q102 -123 102 -246q0 -113 -62 -214q-95 -155 -318 -155zM200 1900h150 v-150h-150v150zM325 1650h150v-150h-150v150zM75 1650h150v-150h-150v150z" />
<glyph unicode="&#x6ad;" horiz-adv-x="1131" arabic-form="medial" d="M310 0h-330v184h310q148 0 193 104q16 36 16 72q0 69 -54 135l-310 380q-50 61 -50 142q0 35 10 68q31 118 135 161l745 310v-186l-595 -250q-71 -30 -92 -70q-6 -11 -6 -36q0 -32 31 -69l583 -705q22 -26 60 -40q43 -16 107 -16h88v-184h-132q-65 0 -123 24 q-103 43 -136 84l-97 120q-21 -46 -38 -73q-95 -155 -315 -155zM200 1900h150v-150h-150v150zM325 1650h150v-150h-150v150zM75 1650h150v-150h-150v150z" />
<glyph unicode="&#x6c6;" horiz-adv-x="989" arabic-form="isolated" d="M426 812l-195 326h139l130 -195l130 195h139l-195 -326h-148zM494 452q-63 0 -107 -57q-24 -33 -24 -69q0 -51 51 -98q47 -44 239 -44q0 184 -86 243q-37 25 -73 25zM832 184q0 -308 -172 -468q-95 -88 -188 -130q-192 -86 -557 -86v184q359 0 493 76q168 95 230 243 q-118 0 -163 10q-150 33 -190 67q-116 98 -116 235q0 141 89 228q104 103 241 103q89 0 161 -51q130 -90 155 -233q17 -102 17 -178z" />
<glyph unicode="&#x6c6;" horiz-adv-x="1058" arabic-form="final" d="M426 812l-195 326h139l130 -195l130 195h139l-195 -326h-148zM653 184q0 76 -16 133q-24 80 -70 110q-60 41 -120 15q-67 -29 -80 -85q-17 -75 47 -129q47 -40 239 -44zM832 184h246v-184h-194l-70 1q-25 -156 -154 -285q-83 -83 -188 -130q-192 -86 -557 -86v184 q361 0 493 76q168 95 230 243q-118 3 -163 10q-139 24 -190 67q-106 89 -116 224q-2 31 8 88q27 155 203 230q59 25 124 24q87 -2 156 -51q133 -92 155 -233q13 -83 17 -178z" />
<glyph unicode="&#x649;" horiz-adv-x="570" arabic-form="initial" d="M299 86q-72 -86 -229 -86h-90v184h35q99 0 143 44q49 49 49 155v217h184v-217q0 -187 -92 -297z" />
<glyph unicode="&#x649;" horiz-adv-x="618" arabic-form="medial" d="M299 86q-77 -86 -229 -86h-90v184h35q99 0 143 44q49 49 49 155v217h184v-217q0 -106 49 -155q44 -44 143 -44h55v-184h-110q-150 0 -229 86z" />
<glyph unicode="&#x6cc;" horiz-adv-x="1603" arabic-form="isolated" d="M1366 12q-102 -170 -445 -243q-177 -38 -297 -38q-129 0 -201 26q-293 104 -293 365q0 117 63 230h184q-66 -131 -65 -230q2 -147 166 -192q97 -26 158 -20q126 11 255 35q177 33 261 113q59 56 59 109q0 74 -126 103q-66 15 -180 61q-67 27 -125 78q-64 57 -65 172 q0 150 190 224q95 37 199 37t200 -42q141 -61 168 -234h-184q-13 61 -79 94q-40 20 -109 22q-78 2 -140 -37q-60 -38 -60 -72q0 -55 125 -97q248 -83 305 -147q77 -85 79 -174q1 -68 -43 -143z" />
<glyph unicode="&#x6cc;" horiz-adv-x="1707" arabic-form="final" d="M1100 -33q91 51 91 84q-1 43 -48 56q-29 8 -59 48q-44 59 -44 120q0 65 52 125q80 94 164 108q30 6 72 6q117 0 204 -134q128 -196 160 -196h35v-184h-35q-114 0 -226 172q-108 165 -134 165q-36 0 -51 -6q-45 -17 -45 -52q0 -48 65 -75q73 -30 76 -153q3 -98 -110 -184 q-128 -96 -346 -127q-89 -12 -193 -12q-188 0 -305 41q-293 103 -293 365q0 153 63 243h184q-65 -90 -65 -243q0 -114 166 -192q66 -31 245 -31q91 0 168 8q149 15 209 48z" />
<glyph unicode="&#x6cc;" horiz-adv-x="570" arabic-form="initial" d="M299 86q-72 -86 -229 -86h-90v184h35q99 0 143 44q49 49 49 155v217h184v-217q0 -187 -92 -297zM349 -150h150v-150h-150v150zM99 -150h150v-150h-150v150z" />
<glyph unicode="&#x6cc;" horiz-adv-x="618" arabic-form="medial" d="M299 86q-77 -86 -229 -86h-90v184h35q99 0 143 44q49 49 49 155v217h184v-217q0 -106 49 -155q44 -44 143 -44h55v-184h-110q-150 0 -229 86zM349 -150h150v-150h-150v150zM99 -150h150v-150h-150v150z" />
<glyph unicode="&#xfe70;" horiz-adv-x="600" arabic-form="isolated" d="M8 1450v110l584 130v-110zM8 1210v110l584 130v-110z" />
<glyph unicode="&#xfe71;" horiz-adv-x="600" arabic-form="medial" d="M-20 0v184h640v-184h-640zM8 1450v110l584 130v-110zM8 1210v110l584 130v-110z" />
<glyph unicode="&#xfe72;" horiz-adv-x="600" arabic-form="isolated" d="M311 1380q37 36 58 78q-33 7 -56 20q-108 57 -108 151q0 87 69 139q28 21 91 21q73 0 113 -39q55 -54 55 -133q0 -39 -12 -77q19 -1 33 -1q18 -1 38 -1v-110q-47 0 -67 2l-52 5q-26 -61 -101 -139q-85 -86 -179 -86q-114 0 -170 154q-15 41 -15 154h90q0 -97 12 -123 q35 -75 83 -75q56 0 118 60zM408 1558l6 14q9 21 9 45q0 34 -17 48t-37 14q-23 0 -34 -9q-18 -13 -18 -41q0 -37 45 -55q20 -8 46 -16z" />
<glyph unicode="&#xfe74;" horiz-adv-x="600" arabic-form="isolated" d="M8 -490v110l584 130v-110zM8 -250v110l584 130v-110z" />
<glyph unicode="&#xfe76;" horiz-adv-x="600" arabic-form="isolated" d="M8 1210v110l584 130v-110z" />
<glyph unicode="&#xfe77;" horiz-adv-x="600" arabic-form="medial" d="M8 1210v110l584 130v-110zM-20 0v184h640v-184h-640z" />
<glyph unicode="&#xfe78;" horiz-adv-x="600" arabic-form="isolated" d="M341 1466q-9 2 -28 12q-108 56 -108 151q0 87 69 139q28 21 91 21q73 0 113 -39q55 -54 55 -133q0 -32 -14 -77q17 -1 35 -1.5t38 -0.5v-110q-35 0 -67 2q-30 2 -58 5q-43 -61 -112 -103q-200 -123 -347 -123v110q152 0 291 109q23 18 42 38zM408 1558l6 14q9 21 9 45 q0 34 -17 48t-37 14q-23 0 -34 -9q-18 -13 -18 -41q0 -37 45 -55q20 -8 46 -16z" />
<glyph unicode="&#xfe79;" horiz-adv-x="600" arabic-form="medial" d="M341 1466q-9 2 -28 12q-108 56 -108 151q0 87 69 139q28 21 91 21q73 0 113 -39q55 -54 55 -133q0 -32 -14 -77q17 -1 35 -1.5t38 -0.5v-110q-35 0 -67 2q-30 2 -58 5q-43 -61 -112 -103q-200 -123 -347 -123v110q152 0 291 109q23 18 42 38zM408 1558l6 14q9 21 9 45 q0 34 -17 48t-37 14q-23 0 -34 -9q-18 -13 -18 -41q0 -37 45 -55q20 -8 46 -16zM-20 0v184h640v-184h-640z" />
<glyph unicode="&#xfe7a;" horiz-adv-x="600" arabic-form="isolated" d="M8 -280v110l584 130v-110z" />
<glyph unicode="&#xfe7b;" horiz-adv-x="600" arabic-form="medial" d="M8 -280v110l584 130v-110zM-20 0v184h640v-184h-640z" />
<glyph unicode="&#xfe7c;" horiz-adv-x="600" arabic-form="isolated" d="M316 1412q-15 -76 -48 -116q-57 -69 -126 -69q-79 0 -120 63q-34 52 -34 161t16 207h97q-11 -125 -11 -181q0 -84 25 -118q19 -25 69 -5q61 24 65 194q2 82 2 171h96q3 -36 3 -90q0 -195 89 -195q71 0 71 174q0 115 -13 172h103q12 -73 12 -189q0 -133 -27 -187 q-45 -89 -128 -99q-71 -9 -102 24q-27 30 -39 83z" />
<glyph unicode="&#xfe7d;" horiz-adv-x="600" arabic-form="medial" d="M316 1412q-15 -76 -48 -116q-57 -69 -126 -69q-79 0 -120 63q-34 52 -34 161t16 207h97q-11 -125 -11 -181q0 -84 25 -118q19 -25 69 -5q61 24 65 194q2 82 2 171h96q3 -36 3 -90q0 -195 89 -195q71 0 71 174q0 115 -13 172h103q12 -73 12 -189q0 -133 -27 -187 q-45 -89 -128 -99q-71 -9 -102 24q-27 30 -39 83zM-20 0v184h640v-184h-640z" />
<glyph unicode="&#xfe7e;" horiz-adv-x="600" arabic-form="isolated" d="M450 1524q0 63 -44 107t-108 44q-65 0 -108.5 -43.5t-43.5 -107.5q0 -65 43.5 -108.5t108.5 -43.5q64 0 108 44t44 108zM572 1524q0 -115 -79.5 -195t-194.5 -80t-194.5 80t-79.5 195t79.5 194.5t194.5 79.5t194.5 -79.5t79.5 -194.5z" />
<glyph unicode="&#xfe7f;" horiz-adv-x="600" arabic-form="medial" d="M-20 0v184h640v-184h-640zM450 1524q0 63 -44 107t-108 44q-65 0 -108.5 -43.5t-43.5 -107.5q0 -65 43.5 -108.5t108.5 -43.5q64 0 108 44t44 108zM572 1524q0 -115 -79.5 -195t-194.5 -80t-194.5 80t-79.5 195t79.5 194.5t194.5 79.5t194.5 -79.5t79.5 -194.5z" />
<glyph unicode="&#x621;" horiz-adv-x="963" arabic-form="isolated" d="M163 85v176q47 6 130 31q68 20 120 53q-142 24 -193 100q-53 79 -53 163q0 65 21 140q30 118 133 181q99 61 197 61q110 0 200 -22v-185q-100 31 -170 29q-51 -1 -100 -27q-96 -48 -95 -160q0 -115 200 -165q57 -14 115 1q72 19 130 54v-185q-90 -60 -295 -140 q-231 -90 -340 -105z" />
<glyph unicode="&#x622;" horiz-adv-x="569" arabic-form="isolated" d="M-75 1784l160 123q103 -83 170 -104q42 -13 96 -13q58 0 99 16q107 41 195 117v-125q-90 -64 -180 -93q-67 -22 -120 -22q-34 0 -110 17q-77 17 -145 87l-165 -128v125zM193 1556h184v-1556h-184v1556z" />
<glyph unicode="&#x622;" horiz-adv-x="624" arabic-form="final" d="M193 371v1185h184v-1173q0 -106 49 -155q44 -44 143 -44h75v-184h-130q-154 0 -234 92q-87 101 -87 279zM-75 1784l160 123q103 -83 170 -104q42 -13 96 -13q58 0 99 16q107 41 195 117v-125q-90 -64 -180 -93q-67 -22 -120 -22q-34 0 -110 17q-77 17 -145 87l-165 -128 v125z" />
<glyph unicode="&#x623;" horiz-adv-x="569" arabic-form="isolated" d="M108 1765l78 18q-44 20 -60 56q-16 37 -16 82q0 96 56 139q58 45 150 45q62 0 114 -33v-100q-50 33 -114 33q-66 0 -83 -18q-29 -32 -29 -58q0 -77 94 -104q33 -10 153 19v-102l-343 -77v100zM193 1556h184v-1556h-184v1556z" />
<glyph unicode="&#x623;" horiz-adv-x="624" arabic-form="final" d="M193 371v1185h184v-1173q0 -106 49 -155q44 -44 143 -44h75v-184h-130q-154 0 -234 92q-87 101 -87 279zM108 1765l78 18q-44 20 -60 56q-16 37 -16 82q0 96 56 139q58 45 150 45q62 0 114 -33v-100q-50 33 -114 33q-66 0 -83 -18q-29 -32 -29 -58q0 -77 94 -104 q33 -10 153 19v-102l-343 -77v100z" />
<glyph unicode="&#x624;" horiz-adv-x="989" arabic-form="isolated" d="M273 865l78 18q-44 20 -60 56q-16 37 -16 82q0 96 56 139q58 45 150 45q62 0 114 -33v-100q-50 33 -114 33q-66 0 -83 -18q-29 -32 -29 -58q0 -77 94 -104q33 -10 153 19v-102l-343 -77v100zM494 452q-63 0 -107 -57q-24 -33 -24 -69q0 -51 51 -98q47 -44 239 -44 q0 184 -86 243q-37 25 -73 25zM832 184q0 -308 -172 -468q-95 -88 -188 -130q-192 -86 -557 -86v184q359 0 493 76q168 95 230 243q-118 0 -163 10q-150 33 -190 67q-116 98 -116 235q0 141 89 228q104 103 241 103q89 0 161 -51q130 -90 155 -233q17 -102 17 -178z" />
<glyph unicode="&#x624;" horiz-adv-x="1058" arabic-form="final" d="M653 184q0 76 -16 133q-24 80 -70 110q-60 41 -120 15q-67 -29 -80 -85q-17 -75 47 -129q47 -40 239 -44zM832 184h246v-184h-194l-70 1q-25 -156 -154 -285q-83 -83 -188 -130q-192 -86 -557 -86v184q361 0 493 76q168 95 230 243q-118 3 -163 10q-139 24 -190 67 q-106 89 -116 224q-2 31 8 88q27 155 203 230q59 25 124 24q87 -2 156 -51q133 -92 155 -233q13 -83 17 -178zM273 865l78 18q-44 20 -60 56q-16 37 -16 82q0 96 56 139q58 45 150 45q62 0 114 -33v-100q-50 33 -114 33q-66 0 -83 -18q-29 -32 -29 -58q0 -77 94 -104 q33 -10 153 19v-102l-343 -77v100z" />
<glyph unicode="&#x625;" horiz-adv-x="569" arabic-form="isolated" d="M108 -400l78 18q-44 20 -60 56q-16 37 -16 82q0 96 56 139q58 45 150 45q62 0 114 -33v-100q-50 33 -114 33q-66 0 -83 -18q-29 -32 -29 -58q0 -77 94 -104q33 -10 153 19v-102l-343 -77v100zM193 1556h184v-1556h-184v1556z" />
<glyph unicode="&#x625;" horiz-adv-x="624" arabic-form="final" d="M193 371v1185h184v-1173q0 -106 49 -155q44 -44 143 -44h75v-184h-130q-154 0 -234 92q-87 101 -87 279zM108 -400l78 18q-44 20 -60 56q-16 37 -16 82q0 96 56 139q58 45 150 45q62 0 114 -33v-100q-50 33 -114 33q-66 0 -83 -18q-29 -32 -29 -58q0 -77 94 -104 q33 -10 153 19v-102l-343 -77v100z" />
<glyph unicode="&#x626;" horiz-adv-x="1603" arabic-form="isolated" d="M323 865l78 18q-44 20 -60 56q-16 37 -16 82q0 96 56 139q58 45 150 45q62 0 114 -33v-100q-50 33 -114 33q-66 0 -83 -18q-29 -32 -29 -58q0 -77 94 -104q33 -10 153 19v-102l-343 -77v100zM1366 12q-102 -170 -445 -243q-177 -38 -297 -38q-129 0 -201 26 q-293 104 -293 365q0 117 63 230h184q-66 -131 -65 -230q2 -147 166 -192q97 -26 158 -20q126 11 255 35q177 33 261 113q59 56 59 109q0 74 -126 103q-66 15 -180 61q-67 27 -125 78q-64 57 -65 172q0 150 190 224q95 37 199 37t200 -42q141 -61 168 -234h-184 q-13 61 -79 94q-40 20 -109 22q-78 2 -140 -37q-60 -38 -60 -72q0 -55 125 -97q248 -83 305 -147q77 -85 79 -174q1 -68 -43 -143z" />
<glyph unicode="&#x626;" horiz-adv-x="1707" arabic-form="final" d="M1100 -33q91 51 91 84q-1 43 -48 56q-29 8 -59 48q-44 59 -44 120q0 65 52 125q80 94 164 108q30 6 72 6q117 0 204 -134q128 -196 160 -196h35v-184h-35q-114 0 -226 172q-108 165 -134 165q-36 0 -51 -6q-45 -17 -45 -52q0 -48 65 -75q73 -30 76 -153q3 -98 -110 -184 q-128 -96 -346 -127q-89 -12 -193 -12q-188 0 -305 41q-293 103 -293 365q0 153 63 243h184q-65 -90 -65 -243q0 -114 166 -192q66 -31 245 -31q91 0 168 8q149 15 209 48zM423 615l78 18q-44 20 -60 56q-16 37 -16 82q0 96 56 139q58 45 150 45q62 0 114 -33v-100 q-50 33 -114 33q-66 0 -83 -18q-29 -32 -29 -58q0 -77 94 -104q33 -10 153 19v-102l-343 -77v100z" />
<glyph unicode="&#x626;" horiz-adv-x="570" arabic-form="initial" d="M299 86q-72 -86 -229 -86h-90v184h35q99 0 143 44q49 49 49 155v217h184v-217q0 -187 -92 -297zM122 915l78 18q-44 20 -60 56q-16 37 -16 82q0 96 56 139q58 45 150 45q62 0 114 -33v-100q-50 33 -114 33q-66 0 -83 -18q-29 -32 -29 -58q0 -77 94 -104q33 -10 153 19 v-102l-343 -77v100z" />
<glyph unicode="&#x626;" horiz-adv-x="618" arabic-form="medial" d="M299 86q-77 -86 -229 -86h-90v184h35q99 0 143 44q49 49 49 155v217h184v-217q0 -106 49 -155q44 -44 143 -44h55v-184h-110q-150 0 -229 86zM122 915l78 18q-44 20 -60 56q-16 37 -16 82q0 96 56 139q58 45 150 45q62 0 114 -33v-100q-50 33 -114 33q-66 0 -83 -18 q-29 -32 -29 -58q0 -77 94 -104q33 -10 153 19v-102l-343 -77v100z" />
<glyph unicode="&#x627;" horiz-adv-x="569" arabic-form="isolated" d="M193 1556h184v-1556h-184v1556z" />
<glyph unicode="&#x627;" horiz-adv-x="624" arabic-form="final" d="M193 371v1185h184v-1173q0 -106 49 -155q44 -44 143 -44h75v-184h-130q-154 0 -234 92q-87 101 -87 279z" />
<glyph unicode="&#x628;" horiz-adv-x="1928" arabic-form="isolated" d="M825 -200h150v-150h-150v150zM1756 669q15 -90 15 -160q0 -135 -76 -236q-128 -171 -445 -235q-285 -58 -470 -58q-191 0 -320 38q-330 97 -330 365q0 138 63 230h184q-65 -94 -65 -230q0 -125 203 -192q104 -34 255 -34q185 0 450 57q255 54 322 167q55 93 55 168 q0 59 -25 120h184z" />
<glyph unicode="&#x628;" horiz-adv-x="2011" arabic-form="final" d="M1775 504q0 -208 70 -267q63 -53 126 -53h60v-184h-102q-116 0 -187 73q-80 83 -104 149q-155 -131 -388 -184q-259 -58 -470 -58q-196 0 -320 38q-329 101 -330 365q-1 138 63 230h184q-65 -94 -65 -230q0 -125 203 -192q104 -34 255 -34q260 2 450 57q199 58 322 167 q59 52 59 171q0 62 -29 117h184q19 -75 19 -165zM825 -200h150v-150h-150v150z" />
<glyph unicode="&#x628;" horiz-adv-x="570" arabic-form="initial" d="M299 86q-72 -86 -229 -86h-90v184h35q99 0 143 44q49 49 49 155v217h184v-217q0 -187 -92 -297zM224 -150h150v-150h-150v150z" />
<glyph unicode="&#x628;" horiz-adv-x="618" arabic-form="medial" d="M299 86q-77 -86 -229 -86h-90v184h35q99 0 143 44q49 49 49 155v217h184v-217q0 -106 49 -155q44 -44 143 -44h55v-184h-110q-150 0 -229 86zM224 -150h150v-150h-150v150z" />
<glyph unicode="&#x629;" horiz-adv-x="1073" arabic-form="isolated" d="M500 1050h150v-150h-150v150zM250 1050h150v-150h-150v150zM443 554q-66 0 -99 -87q-26 -69 -25 -192q1 -82 56 -126q57 -44 114 -44q91 0 184 57q75 46 75 131q0 77 -66 142q-123 120 -239 119zM407 734q198 0 380 -160q141 -124 141 -272q-1 -200 -148 -275 q-165 -85 -297 -85q-96 0 -177 35q-167 74 -167 313q0 181 37 259q84 185 231 185z" />
<glyph unicode="&#x629;" horiz-adv-x="1098" arabic-form="final" d="M676 282q-15 42 -28 91q-13 50 -25 151q-120 -12 -202 -79q-111 -89 -109 -151q1 -41 91 -66t273 54zM609 668q-4 39 -7 82h184q1 -168 37 -342q21 -101 77 -180q31 -44 143 -44h75v-184h-130q-90 0 -163 51q-45 31 -83 90q-138 -73 -294 -73q-56 0 -114 15 q-189 48 -189 202q0 173 204 300q109 68 260 83zM600 1050h150v-150h-150v150zM350 1050h150v-150h-150v150z" />
<glyph unicode="&#x62a;" horiz-adv-x="1928" arabic-form="isolated" d="M950 800h150v-150h-150v150zM700 800h150v-150h-150v150zM1756 669q15 -90 15 -160q0 -135 -76 -236q-128 -171 -445 -235q-285 -58 -470 -58q-191 0 -320 38q-330 97 -330 365q0 138 63 230h184q-65 -94 -65 -230q0 -125 203 -192q104 -34 255 -34q185 0 450 57 q255 54 322 167q55 93 55 168q0 59 -25 120h184z" />
<glyph unicode="&#x62a;" horiz-adv-x="2011" arabic-form="final" d="M1775 504q0 -208 70 -267q63 -53 126 -53h60v-184h-102q-116 0 -187 73q-80 83 -104 149q-155 -131 -388 -184q-259 -58 -470 -58q-196 0 -320 38q-329 101 -330 365q-1 138 63 230h184q-65 -94 -65 -230q0 -125 203 -192q104 -34 255 -34q260 2 450 57q199 58 322 167 q59 52 59 171q0 62 -29 117h184q19 -75 19 -165zM950 800h150v-150h-150v150zM700 800h150v-150h-150v150z" />
<glyph unicode="&#x62a;" horiz-adv-x="570" arabic-form="initial" d="M299 86q-72 -86 -229 -86h-90v184h35q99 0 143 44q49 49 49 155v217h184v-217q0 -187 -92 -297zM349 1000h150v-150h-150v150zM99 1000h150v-150h-150v150z" />
<glyph unicode="&#x62a;" horiz-adv-x="618" arabic-form="medial" d="M299 86q-77 -86 -229 -86h-90v184h35q99 0 143 44q49 49 49 155v217h184v-217q0 -106 49 -155q44 -44 143 -44h55v-184h-110q-150 0 -229 86zM349 1000h150v-150h-150v150zM99 1000h150v-150h-150v150z" />
<glyph unicode="&#x62b;" horiz-adv-x="1928" arabic-form="isolated" d="M825 1050h150v-150h-150v150zM950 800h150v-150h-150v150zM700 800h150v-150h-150v150zM1756 669q15 -90 15 -160q0 -135 -76 -236q-128 -171 -445 -235q-285 -58 -470 -58q-191 0 -320 38q-330 97 -330 365q0 138 63 230h184q-65 -94 -65 -230q0 -125 203 -192 q104 -34 255 -34q185 0 450 57q255 54 322 167q55 93 55 168q0 59 -25 120h184z" />
<glyph unicode="&#x62b;" horiz-adv-x="2011" arabic-form="final" d="M1775 504q0 -208 70 -267q63 -53 126 -53h60v-184h-102q-116 0 -187 73q-80 83 -104 149q-155 -131 -388 -184q-259 -58 -470 -58q-196 0 -320 38q-329 101 -330 365q-1 138 63 230h184q-65 -94 -65 -230q0 -125 203 -192q104 -34 255 -34q260 2 450 57q199 58 322 167 q59 52 59 171q0 62 -29 117h184q19 -75 19 -165zM825 1050h150v-150h-150v150zM950 800h150v-150h-150v150zM700 800h150v-150h-150v150z" />
<glyph unicode="&#x62b;" horiz-adv-x="570" arabic-form="initial" d="M299 86q-72 -86 -229 -86h-90v184h35q99 0 143 44q49 49 49 155v217h184v-217q0 -187 -92 -297zM224 1250h150v-150h-150v150zM349 1000h150v-150h-150v150zM99 1000h150v-150h-150v150z" />
<glyph unicode="&#x62b;" horiz-adv-x="618" arabic-form="medial" d="M299 86q-77 -86 -229 -86h-90v184h35q99 0 143 44q49 49 49 155v217h184v-217q0 -106 49 -155q44 -44 143 -44h55v-184h-110q-150 0 -229 86zM224 1250h150v-150h-150v150zM349 1000h150v-150h-150v150zM99 1000h150v-150h-150v150z" />
<glyph unicode="&#x62c;" horiz-adv-x="1322" arabic-form="isolated" d="M775 175h150v-150h-150v150zM157 807q276 63 471 63q292 0 488 -54v-154q-294 0 -509 -167q-224 -174 -224 -435q0 -135 74 -231q127 -164 458 -164q193 0 405 118v-184q-150 -99 -400 -99q-418 0 -587 194q-131 150 -131 374q0 258 212 481q96 101 233 153 q-101 0 -260 -19q-126 -15 -230 -60v184z" />
<glyph unicode="&#x62c;" horiz-adv-x="1322" arabic-form="final" d="M1302 184h40v-184h-49q-129 0 -252 150q-82 100 -143 256q-6 15 -79 193q-114 -24 -212 -104q-224 -183 -224 -435q0 -137 74 -231q129 -164 458 -164q193 0 405 118v-184q-150 -99 -400 -99q-418 0 -587 194q-131 150 -131 374q0 258 212 481q96 101 233 153h-25 q-95 0 -235 -19q-135 -19 -230 -60v184q272 63 465 63q294 0 494 -54v-154q-109 0 -140 -13l29 -91q51 -160 123 -255q90 -119 174 -119zM700 100h150v-150h-150v150z" />
<glyph unicode="&#x62c;" horiz-adv-x="1266" arabic-form="initial" d="M851 541q-83 23 -186 46q-85 19 -265 35q-82 7 -243 1v184q72 7 147 8q162 0 334 -35q258 -52 478 -150v-154q-76 -24 -164 -76q-166 -98 -240 -164q-145 -129 -220 -156q-221 -80 -384 -80h-128v184h100q227 0 356 72q104 58 220 164q94 86 195 121zM525 -150h150v-150 h-150v150z" />
<glyph unicode="&#x62c;" horiz-adv-x="1322" arabic-form="medial" d="M638 780q258 -52 478 -150v-154q-65 -20 -138 -61q50 -78 80 -112q104 -119 218 -119h66v-184h-86q-209 0 -335 168q-40 54 -99 151q-69 -46 -110 -83q-145 -129 -220 -156q-221 -80 -384 -80h-128v184h100q227 0 356 72q104 58 220 164q94 86 195 121q-83 23 -186 46 q-85 19 -265 35q-82 7 -243 1v184q72 7 147 8q162 0 334 -35zM525 -150h150v-150h-150v150z" />
<glyph unicode="&#x62d;" horiz-adv-x="1322" arabic-form="isolated" d="M157 807q276 63 471 63q292 0 488 -54v-154q-294 0 -509 -167q-224 -174 -224 -435q0 -135 74 -231q127 -164 458 -164q193 0 405 118v-184q-150 -99 -400 -99q-418 0 -587 194q-131 150 -131 374q0 258 212 481q96 101 233 153q-101 0 -260 -19q-126 -15 -230 -60v184z " />
<glyph unicode="&#x62d;" horiz-adv-x="1322" arabic-form="final" d="M1302 184h40v-184h-49q-129 0 -252 150q-82 100 -143 256q-6 15 -79 193q-114 -24 -212 -104q-224 -183 -224 -435q0 -137 74 -231q129 -164 458 -164q193 0 405 118v-184q-150 -99 -400 -99q-418 0 -587 194q-131 150 -131 374q0 258 212 481q96 101 233 153h-25 q-95 0 -235 -19q-135 -19 -230 -60v184q272 63 465 63q294 0 494 -54v-154q-109 0 -140 -13l29 -91q51 -160 123 -255q90 -119 174 -119z" />
<glyph unicode="&#x62d;" horiz-adv-x="1266" arabic-form="initial" d="M851 541q-83 23 -186 46q-85 19 -265 35q-82 7 -243 1v184q72 7 147 8q162 0 334 -35q258 -52 478 -150v-154q-76 -24 -164 -76q-166 -98 -240 -164q-145 -129 -220 -156q-221 -80 -384 -80h-128v184h100q227 0 356 72q104 58 220 164q94 86 195 121z" />
<glyph unicode="&#x62d;" horiz-adv-x="1322" arabic-form="medial" d="M638 780q258 -52 478 -150v-154q-65 -20 -138 -61q50 -78 80 -112q104 -119 218 -119h66v-184h-86q-209 0 -335 168q-40 54 -99 151q-69 -46 -110 -83q-145 -129 -220 -156q-221 -80 -384 -80h-128v184h100q227 0 356 72q104 58 220 164q94 86 195 121q-83 23 -186 46 q-85 19 -265 35q-82 7 -243 1v184q72 7 147 8q162 0 334 -35z" />
<glyph unicode="&#x62e;" horiz-adv-x="1322" arabic-form="isolated" d="M575 1200h150v-150h-150v150zM157 807q276 63 471 63q292 0 488 -54v-154q-294 0 -509 -167q-224 -174 -224 -435q0 -135 74 -231q127 -164 458 -164q193 0 405 118v-184q-150 -99 -400 -99q-418 0 -587 194q-131 150 -131 374q0 258 212 481q96 101 233 153 q-101 0 -260 -19q-126 -15 -230 -60v184z" />
<glyph unicode="&#x62e;" horiz-adv-x="1322" arabic-form="final" d="M1302 184h40v-184h-49q-129 0 -252 150q-82 100 -143 256q-6 15 -79 193q-114 -24 -212 -104q-224 -183 -224 -435q0 -137 74 -231q129 -164 458 -164q193 0 405 118v-184q-150 -99 -400 -99q-418 0 -587 194q-131 150 -131 374q0 258 212 481q96 101 233 153h-25 q-95 0 -235 -19q-135 -19 -230 -60v184q272 63 465 63q294 0 494 -54v-154q-109 0 -140 -13l29 -91q51 -160 123 -255q90 -119 174 -119zM575 1200h150v-150h-150v150z" />
<glyph unicode="&#x62e;" horiz-adv-x="1266" arabic-form="initial" d="M851 541q-83 23 -186 46q-85 19 -265 35q-82 7 -243 1v184q72 7 147 8q162 0 334 -35q258 -52 478 -150v-154q-76 -24 -164 -76q-166 -98 -240 -164q-145 -129 -220 -156q-221 -80 -384 -80h-128v184h100q227 0 356 72q104 58 220 164q94 86 195 121zM525 1100h150v-150 h-150v150z" />
<glyph unicode="&#x62e;" horiz-adv-x="1322" arabic-form="medial" d="M638 780q258 -52 478 -150v-154q-65 -20 -138 -61q50 -78 80 -112q104 -119 218 -119h66v-184h-86q-209 0 -335 168q-40 54 -99 151q-69 -46 -110 -83q-145 -129 -220 -156q-221 -80 -384 -80h-128v184h100q227 0 356 72q104 58 220 164q94 86 195 121q-83 23 -186 46 q-85 19 -265 35q-82 7 -243 1v184q72 7 147 8q162 0 334 -35zM525 1100h150v-150h-150v150z" />
<glyph unicode="&#x62f;" horiz-adv-x="912" arabic-form="isolated" d="M391 151q172 49 207 161q8 27 8 69q0 78 -60 194q-66 129 -239 275h227q113 -91 179 -215q82 -152 82 -257q0 -99 -32 -174q-80 -194 -342 -235q-46 -7 -91 -7q-102 0 -205 38v184q115 -42 199 -42q33 0 67 9z" />
<glyph unicode="&#x62f;" horiz-adv-x="1075" arabic-form="final" d="M546 575q-57 122 -239 275h227q97 -78 179 -215q81 -134 81 -251q0 -73 83 -156q44 -44 143 -44h75v-184h-130q-147 0 -244 130q-93 -128 -300 -161q-46 -7 -91 -7q-102 0 -205 38v184q115 -42 199 -42q33 0 67 9q172 49 207 161q8 27 8 69q0 68 -60 194z" />
<glyph unicode="&#x630;" horiz-adv-x="912" arabic-form="isolated" d="M325 1200h150v-150h-150v150zM391 151q172 49 207 161q8 27 8 69q0 78 -60 194q-66 129 -239 275h227q113 -91 179 -215q82 -152 82 -257q0 -99 -32 -174q-80 -194 -342 -235q-46 -7 -91 -7q-102 0 -205 38v184q115 -42 199 -42q33 0 67 9z" />
<glyph unicode="&#x630;" horiz-adv-x="1075" arabic-form="final" d="M546 575q-57 122 -239 275h227q97 -78 179 -215q81 -134 81 -251q0 -73 83 -156q44 -44 143 -44h75v-184h-130q-147 0 -244 130q-93 -128 -300 -161q-46 -7 -91 -7q-102 0 -205 38v184q115 -42 199 -42q33 0 67 9q172 49 207 161q8 27 8 69q0 68 -60 194zM325 1200h150 v-150h-150v150z" />
<glyph unicode="&#x631;" horiz-adv-x="989" arabic-form="isolated" d="M675 158q10 58 10 130q0 126 -53 262h184q50 -118 50 -250q0 -82 -8 -144q-46 -350 -337 -505q-284 -151 -606 -151v184q304 0 507 128q218 138 253 346z" />
<glyph unicode="&#x631;" horiz-adv-x="1130" arabic-form="final" d="M632 550h184q30 -112 33 -142q10 -103 83 -180q42 -44 143 -44h75v-184h-130q-130 0 -180 62q-68 -278 -319 -411q-284 -151 -606 -151v184q304 0 507 128q218 138 253 346q10 58 10 130q0 126 -53 262z" />
<glyph unicode="&#x632;" horiz-adv-x="989" arabic-form="isolated" d="M625 950h150v-150h-150v150zM675 158q10 58 10 130q0 126 -53 262h184q50 -118 50 -250q0 -82 -8 -144q-46 -350 -337 -505q-284 -151 -606 -151v184q304 0 507 128q218 138 253 346z" />
<glyph unicode="&#x632;" horiz-adv-x="1130" arabic-form="final" d="M632 550h184q30 -112 33 -142q10 -103 83 -180q42 -44 143 -44h75v-184h-130q-130 0 -180 62q-68 -278 -319 -411q-284 -151 -606 -151v184q304 0 507 128q218 138 253 346q10 58 10 130q0 126 -53 262zM625 950h150v-150h-150v150z" />
<glyph unicode="&#x633;" horiz-adv-x="2500" arabic-form="isolated" d="M1276 44q-24 -179 -108 -286q-133 -170 -326 -232q-80 -26 -200 -26q-128 1 -237 29q-275 71 -275 399q0 246 105 426h184q-108 -206 -107 -426q1 -179 148 -217q95 -24 176 -24q98 0 193 37q121 48 215 206q64 108 63 250q-1 125 -17 186l-64 234h184l36 -156 q16 -74 44 -134q59 -129 174 -129q82 0 126 122q37 103 37 297h184q0 -205 19 -255q64 -169 174 -169q142 0 142 280v294h184v-342q0 -199 -92 -312q-75 -92 -177 -116q-37 -9 -69 -9q-73 0 -121 25q-138 70 -155 193q-49 -159 -144 -189q-50 -15 -120 -18q-132 -6 -176 62z " />
<glyph unicode="&#x633;" horiz-adv-x="2611" arabic-form="final" d="M1464 181q78 -2 126 122q37 95 37 297h184q0 -205 19 -255q64 -169 174 -169q142 0 142 280v294h184v-342q0 -97 83 -180q44 -44 143 -44h75v-184h-130q-145 0 -263 96q-68 -91 -177 -116q-37 -9 -69 -9q-73 0 -121 25q-138 70 -155 193q-49 -159 -144 -189 q-64 -20 -120 -18q-137 2 -176 62q-24 -179 -108 -286q-133 -170 -326 -232q-80 -26 -200 -26q-128 1 -237 29q-275 71 -275 399q0 246 105 426h184q-108 -206 -107 -426q1 -179 148 -217q95 -24 176 -24q98 0 193 37q121 48 215 206q64 108 63 250q-1 125 -17 186l-64 234 h184l36 -156q16 -74 44 -134q58 -126 174 -129z" />
<glyph unicode="&#x633;" arabic-form="initial" d="M384 138q-43 -59 -99 -92q-76 -46 -175 -46h-130v184h75q99 0 143 44q80 80 80 180v192h184v-156q0 -64 44 -164q43 -99 147 -99q109 0 153 122q37 103 37 297h184q0 -205 19 -255q64 -170 174 -169q142 2 142 280v294h184v-342q0 -199 -92 -312q-75 -92 -177 -116 q-37 -9 -72 -9q-63 0 -118 25q-137 61 -155 193q-48 -156 -144 -189q-68 -24 -133 -24q-98 0 -170 49q-60 40 -101 113z" />
<glyph unicode="&#x633;" horiz-adv-x="1827" arabic-form="medial" d="M1277 -20q-37 -9 -72 -9q-63 0 -118 25q-137 61 -155 193q-48 -156 -144 -189q-68 -24 -133 -24q-98 0 -170 49q-60 40 -101 113q-43 -59 -99 -92q-76 -46 -175 -46h-130v184h75q99 0 143 44q80 80 80 180v192h184v-156q0 -64 44 -164q43 -99 147 -99q109 0 153 122 q37 103 37 297h184q0 -205 19 -255q64 -170 174 -169q142 2 142 280v294h184v-342q0 -97 83 -180q44 -44 143 -44h75v-184h-130q-145 0 -263 96q-68 -90 -177 -116z" />
<glyph unicode="&#x634;" horiz-adv-x="2500" arabic-form="isolated" d="M1375 1200h150v-150h-150v150zM1500 950h150v-150h-150v150zM1250 950h150v-150h-150v150zM1276 44q-24 -179 -108 -286q-133 -170 -326 -232q-80 -26 -200 -26q-128 1 -237 29q-275 71 -275 399q0 246 105 426h184q-108 -206 -107 -426q1 -179 148 -217q95 -24 176 -24 q98 0 193 37q121 48 215 206q64 108 63 250q-1 125 -17 186l-64 234h184l36 -156q16 -74 44 -134q59 -129 174 -129q82 0 126 122q37 103 37 297h184q0 -205 19 -255q64 -169 174 -169q142 0 142 280v294h184v-342q0 -199 -92 -312q-75 -92 -177 -116q-37 -9 -69 -9 q-73 0 -121 25q-138 70 -155 193q-49 -159 -144 -189q-50 -15 -120 -18q-132 -6 -176 62z" />
<glyph unicode="&#x634;" horiz-adv-x="2611" arabic-form="final" d="M1464 181q78 -2 126 122q37 95 37 297h184q0 -205 19 -255q64 -169 174 -169q142 0 142 280v294h184v-342q0 -97 83 -180q44 -44 143 -44h75v-184h-130q-145 0 -263 96q-68 -91 -177 -116q-37 -9 -69 -9q-73 0 -121 25q-138 70 -155 193q-49 -159 -144 -189 q-64 -20 -120 -18q-137 2 -176 62q-24 -179 -108 -286q-133 -170 -326 -232q-80 -26 -200 -26q-128 1 -237 29q-275 71 -275 399q0 246 105 426h184q-108 -206 -107 -426q1 -179 148 -217q95 -24 176 -24q98 0 193 37q121 48 215 206q64 108 63 250q-1 125 -17 186l-64 234 h184l36 -156q16 -74 44 -134q58 -126 174 -129zM1375 1200h150v-150h-150v150zM1500 950h150v-150h-150v150zM1250 950h150v-150h-150v150z" />
<glyph unicode="&#x634;" arabic-form="initial" d="M384 138q-43 -59 -99 -92q-76 -46 -175 -46h-130v184h75q99 0 143 44q80 80 80 180v192h184v-156q0 -64 44 -164q43 -99 147 -99q109 0 153 122q37 103 37 297h184q0 -205 19 -255q64 -170 174 -169q142 2 142 280v294h184v-342q0 -199 -92 -312q-75 -92 -177 -116 q-37 -9 -72 -9q-63 0 -118 25q-137 61 -155 193q-48 -156 -144 -189q-68 -24 -133 -24q-98 0 -170 49q-60 40 -101 113zM775 1200h150v-150h-150v150zM900 950h150v-150h-150v150zM650 950h150v-150h-150v150z" />
<glyph unicode="&#x634;" horiz-adv-x="1827" arabic-form="medial" d="M1277 -20q-37 -9 -72 -9q-63 0 -118 25q-137 61 -155 193q-48 -156 -144 -189q-68 -24 -133 -24q-98 0 -170 49q-60 40 -101 113q-43 -59 -99 -92q-76 -46 -175 -46h-130v184h75q99 0 143 44q80 80 80 180v192h184v-156q0 -64 44 -164q43 -99 147 -99q109 0 153 122 q37 103 37 297h184q0 -205 19 -255q64 -170 174 -169q142 2 142 280v294h184v-342q0 -97 83 -180q44 -44 143 -44h75v-184h-130q-145 0 -263 96q-68 -90 -177 -116zM775 1200h150v-150h-150v150zM900 950h150v-150h-150v150zM650 950h150v-150h-150v150z" />
<glyph unicode="&#x635;" horiz-adv-x="2476" arabic-form="isolated" d="M1168 -242q-88 -155 -326 -232q-80 -26 -200 -26q-128 1 -237 29q-275 71 -275 399q0 246 105 426h184q-108 -206 -107 -426q1 -179 148 -217q95 -24 176 -24q102 0 193 37q162 68 205 206q33 108 33 235q0 147 -39 285h171q-1 -15 13 -70q10 -40 50 -90q115 146 238 254 q126 110 255 164q79 34 160 33q125 -2 222 -39q186 -71 186 -304q0 -169 -184 -278q-202 -120 -486 -120h-276q-38 0 -90 30q-45 26 -45 42q0 -186 -74 -314zM1915 567q-76 0 -202 -81q-168 -108 -313 -302h187q237 0 366 63q187 91 186 161q-2 135 -139 154q-37 5 -85 5z " />
<glyph unicode="&#x635;" horiz-adv-x="2509" arabic-form="final" d="M1653 0h-276q-38 0 -90 30q-45 26 -45 42q0 -186 -74 -314q-88 -155 -326 -232q-80 -26 -200 -26q-128 1 -237 29q-275 71 -275 399q0 246 105 426h184q-108 -206 -107 -426q1 -179 148 -217q95 -24 176 -24q102 0 193 37q162 68 205 206q33 108 33 235q0 147 -39 285 h171q-1 -15 13 -70q10 -40 50 -90q115 146 238 254q108 94 255 164q72 34 160 33q125 -2 222 -39q186 -71 186 -304q0 -77 -42 -147q14 -12 30 -23q61 -44 143 -44h75v-184h-130q-131 0 -234 92l-28 26q-204 -118 -484 -118zM1915 567q-76 0 -202 -81q-168 -108 -313 -302 h187q237 0 366 63q187 91 186 161q-2 135 -139 154q-37 5 -85 5z" />
<glyph unicode="&#x635;" horiz-adv-x="1739" arabic-form="initial" d="M976 486q-168 -108 -313 -302h187q237 0 366 63q186 91 186 161q0 135 -139 154q-37 5 -85 5q-76 0 -202 -81zM916 0h-276q-74 0 -152 42q-65 35 -104 96q-102 -138 -274 -138h-130v184h75q99 0 143 44q80 80 80 180v114h184v-78q0 -24 9 -64t54 -90q101 134 196 218 q153 137 297 200q75 33 160 33q115 0 222 -39q186 -68 186 -304q0 -169 -184 -278q-202 -120 -486 -120z" />
<glyph unicode="&#x635;" horiz-adv-x="1776" arabic-form="medial" d="M920 0h-280q-74 0 -152 42q-65 35 -104 96q-102 -138 -274 -138h-130v184h75q99 0 143 44q80 80 80 180v114h184v-78q0 -24 9 -64t54 -90q101 134 196 218q153 137 297 200q75 33 160 33q113 0 222 -39q190 -68 190 -304q0 -75 -42 -147q14 -12 30 -23q61 -44 143 -44h75 v-184h-130q-131 0 -234 92l-28 26q-204 -118 -484 -118zM976 486q-168 -108 -313 -302h187q237 0 366 63q186 91 186 161q0 135 -139 154q-37 5 -85 5q-76 0 -202 -81z" />
<glyph unicode="&#x636;" horiz-adv-x="2476" arabic-form="isolated" d="M1275 950h150v-150h-150v150zM1168 -242q-88 -155 -326 -232q-80 -26 -200 -26q-128 1 -237 29q-275 71 -275 399q0 246 105 426h184q-108 -206 -107 -426q1 -179 148 -217q95 -24 176 -24q102 0 193 37q162 68 205 206q33 108 33 235q0 147 -39 285h171q-1 -15 13 -70 q10 -40 50 -90q115 146 238 254q126 110 255 164q79 34 160 33q125 -2 222 -39q186 -71 186 -304q0 -169 -184 -278q-202 -120 -486 -120h-276q-38 0 -90 30q-45 26 -45 42q0 -186 -74 -314zM1915 567q-76 0 -202 -81q-168 -108 -313 -302h187q237 0 366 63q187 91 186 161 q-2 135 -139 154q-37 5 -85 5z" />
<glyph unicode="&#x636;" horiz-adv-x="2509" arabic-form="final" d="M1653 0h-276q-38 0 -90 30q-45 26 -45 42q0 -186 -74 -314q-88 -155 -326 -232q-80 -26 -200 -26q-128 1 -237 29q-275 71 -275 399q0 246 105 426h184q-108 -206 -107 -426q1 -179 148 -217q95 -24 176 -24q102 0 193 37q162 68 205 206q33 108 33 235q0 147 -39 285 h171q-1 -15 13 -70q10 -40 50 -90q115 146 238 254q108 94 255 164q72 34 160 33q125 -2 222 -39q186 -71 186 -304q0 -77 -42 -147q14 -12 30 -23q61 -44 143 -44h75v-184h-130q-131 0 -234 92l-28 26q-204 -118 -484 -118zM1915 567q-76 0 -202 -81q-168 -108 -313 -302 h187q237 0 366 63q187 91 186 161q-2 135 -139 154q-37 5 -85 5zM1275 950h150v-150h-150v150z" />
<glyph unicode="&#x636;" horiz-adv-x="1739" arabic-form="initial" d="M976 486q-168 -108 -313 -302h187q237 0 366 63q186 91 186 161q0 135 -139 154q-37 5 -85 5q-76 0 -202 -81zM916 0h-276q-74 0 -152 42q-65 35 -104 96q-102 -138 -274 -138h-130v184h75q99 0 143 44q80 80 80 180v114h184v-78q0 -24 9 -64t54 -90q101 134 196 218 q153 137 297 200q75 33 160 33q115 0 222 -39q186 -68 186 -304q0 -169 -184 -278q-202 -120 -486 -120zM475 950h150v-150h-150v150z" />
<glyph unicode="&#x636;" horiz-adv-x="1776" arabic-form="medial" d="M920 0h-280q-74 0 -152 42q-65 35 -104 96q-102 -138 -274 -138h-130v184h75q99 0 143 44q80 80 80 180v114h184v-78q0 -24 9 -64t54 -90q101 134 196 218q153 137 297 200q75 33 160 33q113 0 222 -39q190 -68 190 -304q0 -75 -42 -147q14 -12 30 -23q61 -44 143 -44h75 v-184h-130q-131 0 -234 92l-28 26q-204 -118 -484 -118zM976 486q-168 -108 -313 -302h187q237 0 366 63q186 91 186 161q0 135 -139 154q-37 5 -85 5q-76 0 -202 -81zM475 950h150v-150h-150v150z" />
<glyph unicode="&#x637;" horiz-adv-x="1894" arabic-form="isolated" d="M833 184h187q237 0 366 63q187 93 186 161q-2 135 -139 154q-37 5 -85 5q-80 0 -202 -81q-177 -120 -313 -302zM1086 0h-575h-367v184h367v1372h184v-1266q217 319 493 418q92 33 160 33q120 0 222 -39q186 -69 186 -304q0 -169 -184 -278q-202 -120 -486 -120z" />
<glyph unicode="&#x637;" horiz-adv-x="1944" arabic-form="final" d="M1088 0h-577h-367v184h367v1372h184v-1266q217 319 493 418q92 33 160 33q117 0 222 -39q188 -69 188 -304q0 -77 -42 -147q14 -12 30 -23q61 -44 143 -44h75v-184h-130q-131 0 -234 92l-28 26q-204 -118 -484 -118zM833 184h187q237 0 366 63q187 93 186 161 q-2 135 -139 154q-37 5 -85 5q-80 0 -202 -81q-177 -120 -313 -302z" />
<glyph unicode="&#x637;" horiz-adv-x="1630" arabic-form="initial" d="M569 184h187q237 0 366 63q187 93 186 161q-2 135 -139 154q-37 5 -85 5q-80 0 -202 -81q-177 -120 -313 -302zM822 0h-575h-267v184h267v1372h184v-1266q217 319 493 418q92 33 160 33q117 0 222 -39q186 -69 186 -304q0 -169 -184 -278q-202 -120 -486 -120z" />
<glyph unicode="&#x637;" horiz-adv-x="1680" arabic-form="medial" d="M824 0h-577h-267v184h267v1372h184v-1266q217 319 493 418q92 33 160 33q117 0 222 -39q188 -69 188 -304q0 -77 -42 -147q14 -12 30 -23q61 -44 143 -44h75v-184h-130q-131 0 -234 92l-28 26q-204 -118 -484 -118zM569 184h187q237 0 366 63q187 93 186 161 q-2 135 -139 154q-37 5 -85 5q-80 0 -202 -81q-177 -120 -313 -302z" />
<glyph unicode="&#x638;" horiz-adv-x="1894" arabic-form="isolated" d="M975 1000h150v-150h-150v150zM833 184h187q237 0 366 63q187 93 186 161q-2 135 -139 154q-37 5 -85 5q-80 0 -202 -81q-177 -120 -313 -302zM1086 0h-575h-367v184h367v1372h184v-1266q217 319 493 418q92 33 160 33q120 0 222 -39q186 -69 186 -304q0 -169 -184 -278 q-202 -120 -486 -120z" />
<glyph unicode="&#x638;" horiz-adv-x="1944" arabic-form="final" d="M1088 0h-577h-367v184h367v1372h184v-1266q217 319 493 418q92 33 160 33q117 0 222 -39q188 -69 188 -304q0 -77 -42 -147q14 -12 30 -23q61 -44 143 -44h75v-184h-130q-131 0 -234 92l-28 26q-204 -118 -484 -118zM833 184h187q237 0 366 63q187 93 186 161 q-2 135 -139 154q-37 5 -85 5q-80 0 -202 -81q-177 -120 -313 -302zM975 1000h150v-150h-150v150z" />
<glyph unicode="&#x638;" horiz-adv-x="1630" arabic-form="initial" d="M569 184h187q237 0 366 63q187 93 186 161q-2 135 -139 154q-37 5 -85 5q-80 0 -202 -81q-177 -120 -313 -302zM822 0h-575h-267v184h267v1372h184v-1266q217 319 493 418q92 33 160 33q117 0 222 -39q186 -69 186 -304q0 -169 -184 -278q-202 -120 -486 -120zM711 1000 h150v-150h-150v150z" />
<glyph unicode="&#x638;" horiz-adv-x="1680" arabic-form="medial" d="M824 0h-577h-267v184h267v1372h184v-1266q217 319 493 418q92 33 160 33q117 0 222 -39q188 -69 188 -304q0 -77 -42 -147q14 -12 30 -23q61 -44 143 -44h75v-184h-130q-131 0 -234 92l-28 26q-204 -118 -484 -118zM569 184h187q237 0 366 63q187 93 186 161 q-2 135 -139 154q-37 5 -85 5q-80 0 -202 -81q-177 -120 -313 -302zM711 1000h150v-150h-150v150z" />
<glyph unicode="&#x639;" horiz-adv-x="1222" arabic-form="isolated" d="M339 -177q119 -158 458 -158q193 0 405 118v-184q-150 -99 -400 -99q-421 0 -587 188q-98 111 -98 312q0 177 87 278q113 131 190 156q-51 4 -98 34q-88 56 -88 186q0 208 204 335q124 77 376 77v-169q-195 0 -311 -65q-93 -52 -93 -156q0 -75 48 -100q45 -24 91 -24 q40 0 81 18q158 69 412 98v-184q-273 -26 -509 -175q-209 -131 -209 -316q0 -117 41 -170z" />
<glyph unicode="&#x639;" horiz-adv-x="1090" arabic-form="final" d="M1202 -401q-152 -99 -409 -99q-421 0 -578 188q-98 122 -98 323t187 341q-61 50 -95 108t-34 100q0 110 125 174q97 48 216 48t214 -48q127 -64 127 -176q0 -91 -91 -158q-57 -43 -151 -75q68 -64 159 -102.5t176 -38.5h160v-184h-144q-266 0 -514 228 q-154 -129 -154 -236q0 -108 41 -169q107 -158 458 -158q193 0 405 118v-184zM483 445q136 56 136 104t-103 48t-103 -51q0 -36 70 -101z" />
<glyph unicode="&#x639;" horiz-adv-x="1222" arabic-form="initial" d="M60 184q161 0 363 93q-75 24 -127 83q-88 100 -88 240q0 264 204 389q125 77 376 77v-169q-218 0 -311 -68.5t-93 -196t62 -179.5q83 -70 153 -70q55 0 129 33l288 129v-184l-420 -197q-350 -164 -528 -164h-88v184h80z" />
<glyph unicode="&#x639;" horiz-adv-x="988" arabic-form="medial" d="M494 185q-194 -185 -396 -185h-118v184h96q107 0 173 40q59 36 99 75q-97 85 -165 175q-30 39 -30 84q0 31 13 72q16 55 120 107q89 45 208 45t208 -45q104 -52 120 -107q13 -41 13 -72q0 -45 -30 -84q-77 -98 -165 -175q31 -31 99 -75q61 -40 173 -40h96v-184h-118 q-202 0 -396 185zM494 597q-26 0 -56 -7q-47 -12 -47 -44q0 -29 103 -124q103 95 103 124q0 32 -47 44q-30 7 -56 7z" />
<glyph unicode="&#x63a;" horiz-adv-x="1222" arabic-form="isolated" d="M375 1350h150v-150h-150v150zM339 -177q119 -158 458 -158q193 0 405 118v-184q-150 -99 -400 -99q-421 0 -587 188q-98 111 -98 312q0 177 87 278q113 131 190 156q-51 4 -98 34q-88 56 -88 186q0 208 204 335q124 77 376 77v-169q-195 0 -311 -65q-93 -52 -93 -156 q0 -75 48 -100q45 -24 91 -24q40 0 81 18q158 69 412 98v-184q-273 -26 -509 -175q-209 -131 -209 -316q0 -117 41 -170z" />
<glyph unicode="&#x63a;" horiz-adv-x="1090" arabic-form="final" d="M1202 -401q-152 -99 -409 -99q-421 0 -578 188q-98 122 -98 323t187 341q-61 50 -95 108t-34 100q0 110 125 174q97 48 216 48t214 -48q127 -64 127 -176q0 -91 -91 -158q-57 -43 -151 -75q68 -64 159 -102.5t176 -38.5h160v-184h-144q-266 0 -514 228 q-154 -129 -154 -236q0 -108 41 -169q107 -158 458 -158q193 0 405 118v-184zM483 445q136 56 136 104t-103 48t-103 -51q0 -36 70 -101zM425 1100h150v-150h-150v150z" />
<glyph unicode="&#x63a;" horiz-adv-x="1071" arabic-form="initial" d="M60 184q161 0 363 93q-75 24 -127 83q-88 100 -88 240q0 264 204 389q125 77 376 77v-169q-218 0 -311 -68.5t-93 -196t62 -179.5q83 -70 153 -70q55 0 129 33l288 129v-184l-420 -197q-350 -164 -528 -164h-88v184h80zM375 1350h150v-150h-150v150z" />
<glyph unicode="&#x63a;" horiz-adv-x="988" arabic-form="medial" d="M494 185q-194 -185 -396 -185h-118v184h96q107 0 173 40q59 36 99 75q-97 85 -165 175q-30 39 -30 84q0 31 13 72q16 55 120 107q89 45 208 45t208 -45q104 -52 120 -107q13 -41 13 -72q0 -45 -30 -84q-77 -98 -165 -175q31 -31 99 -75q61 -40 173 -40h96v-184h-118 q-202 0 -396 185zM494 597q-26 0 -56 -7q-47 -12 -47 -44q0 -29 103 -124q103 95 103 124q0 32 -47 44q-30 7 -56 7zM419 1100h150v-150h-150v150z" />
<glyph unicode="&#x641;" horiz-adv-x="2123" arabic-form="isolated" d="M1525 1300h150v-150h-150v150zM1717 537q41 43 41 120q0 59 -66 110q-31 25 -75 24q-52 -1 -92 -43q-40 -41 -41 -92q0 -80 55 -118q40 -25 82 -25q72 0 96 24zM1872 219q-110 -180 -427 -250q-273 -61 -560 -61q-295 0 -425 41q-329 100 -330 365q-1 138 63 230h184 q-65 -94 -65 -230q0 -116 203 -192q90 -34 370 -34q321 0 530 57q215 59 315 167q35 38 55 116q-63 -75 -185 -75q-133 0 -208 67q-98 87 -98 216q0 52 8 96q23 148 173 217q78 36 154 36q90 0 156 -50q96 -72 142 -174q24 -54 23 -191q-2 -226 -78 -351z" />
<glyph unicode="&#x641;" horiz-adv-x="2120" arabic-form="final" d="M1656 36q-104 -43 -214 -67q-280 -60 -552 -60q-305 1 -430 40q-329 103 -330 365q-1 138 63 230h184q-65 -94 -65 -230q0 -115 203 -192q81 -31 380 -31q232 0 517 54l28 4q-34 27 -63 71q-82 124 -82 245q0 31 4 67q22 155 210 230q58 23 110 23q82 0 163 -50 q137 -83 155 -233q4 -37 4 -67q0 -144 -80 -250q9 -1 16 -1h263v-184h-268q-105 0 -216 36zM1656 223q104 65 104 187q0 20 -5 47q-14 71 -66 110q-34 25 -74 25q-24 0 -46 -10q-61 -25 -80 -85q-6 -19 -6 -37q0 -56 41 -122q49 -78 132 -115zM1525 1100h150v-150h-150v150z " />
<glyph unicode="&#x641;" horiz-adv-x="979" arabic-form="initial" d="M598 537q41 43 41 120q0 59 -66 110q-31 25 -75 24q-52 -1 -92 -43q-40 -41 -41 -92q0 -80 55 -118q40 -25 82 -25q72 0 96 24zM-20 184h241q84 0 235 23q79 12 139 105q31 48 46 98q-63 -55 -160 -57q-130 -2 -208 67q-98 87 -98 216q0 52 8 96q23 148 173 217 q78 36 154 36q90 0 156 -50q96 -72 142 -174q23 -51 23 -191q0 -208 -78 -351q-74 -136 -198 -180q-109 -39 -254 -39h-321v184zM425 1300h150v-150h-150v150z" />
<glyph unicode="&#x641;" horiz-adv-x="1036" arabic-form="medial" d="M614 762q183 -80 207 -230q8 -50 8 -92q0 -73 -21 -122q-29 -67 -65 -117q39 -17 186 -17h127v-184h-217q-136 0 -321 57q-185 -57 -321 -57h-217v184h127q147 0 186 17q-29 40 -65 117q-21 46 -21 122q0 44 8 92q23 143 208 230q30 14 95 14q63 0 96 -14zM518 592 q-15 0 -33 -10q-56 -32 -80 -85q-10 -21 -10 -50q0 -43 24 -96q31 -68 99 -90q63 21 99 90q25 50 25 96q0 24 -11 50q-23 52 -80 85q-19 10 -33 10zM443 1150h150v-150h-150v150z" />
<glyph unicode="&#x642;" horiz-adv-x="1589" arabic-form="isolated" d="M1100 1300h150v-150h-150v150zM850 1300h150v-150h-150v150zM1192 537q41 43 41 120q0 59 -66 110q-31 25 -75 24q-52 -1 -92 -43q-40 -41 -41 -92q0 -80 55 -118q40 -25 82 -25q72 0 96 24zM528 -249q240 0 402 115q330 234 330 562q-63 -75 -185 -75q-133 0 -208 67 q-98 87 -98 216q0 52 8 96q23 148 173 217q78 36 154 36q99 0 156 -50q103 -90 142 -209q33 -102 33 -262q0 -204 -60 -344q-92 -213 -335 -402q-206 -159 -512 -158q-211 1 -344 192q-77 110 -77 284q0 180 82 396h183q-85 -185 -88 -340q-1 -60 11 -112q53 -229 233 -229z " />
<glyph unicode="&#x642;" horiz-adv-x="1708" arabic-form="final" d="M1208 10q-66 5 -112 18q-121 35 -178 78q-147 109 -147 294q0 61 6 87q40 165 187 234q41 19 128 19q112 0 168 -50q99 -88 149 -233q20 -58 26 -272q26 -1 30 -1h263v-184h-268h-48q-45 -122 -106 -192q-128 -145 -286 -223q-175 -86 -380 -85q-370 2 -464 192 q-69 138 -69 263q0 166 62 262h184q-62 -107 -62 -262q0 -76 27 -134q60 -130 322 -130q140 0 290 68q213 98 278 251zM1251 203q4 122 -18 209q-19 75 -66 110q-34 25 -73 25q-34 0 -55 -10q-51 -27 -72 -85q-10 -30 -10 -55q0 -60 57 -104q76 -59 176 -79q47 -9 61 -11z M1150 1025h150v-150h-150v150zM900 1025h150v-150h-150v150z" />
<glyph unicode="&#x642;" horiz-adv-x="979" arabic-form="initial" d="M598 537q41 43 41 120q0 59 -66 110q-31 25 -75 24q-52 -1 -92 -43q-40 -41 -41 -92q0 -80 55 -118q40 -25 82 -25q72 0 96 24zM-20 184h241q84 0 235 23q79 12 139 105q31 48 46 98q-63 -55 -160 -57q-130 -2 -208 67q-98 87 -98 216q0 52 8 96q23 148 173 217 q78 36 154 36q90 0 156 -50q96 -72 142 -174q23 -51 23 -191q0 -208 -78 -351q-74 -136 -198 -180q-109 -39 -254 -39h-321v184zM550 1300h150v-150h-150v150zM300 1300h150v-150h-150v150z" />
<glyph unicode="&#x642;" horiz-adv-x="1036" arabic-form="medial" d="M614 762q183 -80 207 -230q8 -50 8 -92q0 -73 -21 -122q-29 -67 -65 -117q39 -17 186 -17h127v-184h-217q-136 0 -321 57q-185 -57 -321 -57h-217v184h127q147 0 186 17q-29 40 -65 117q-21 46 -21 122q0 44 8 92q23 143 208 230q30 14 95 14q63 0 96 -14zM518 592 q-15 0 -33 -10q-56 -32 -80 -85q-10 -21 -10 -50q0 -43 24 -96q31 -68 99 -90q63 21 99 90q25 50 25 96q0 24 -11 50q-23 52 -80 85q-19 10 -33 10zM562 1150h150v-150h-150v150zM312 1150h150v-150h-150v150z" />
<glyph unicode="&#x643;" horiz-adv-x="1688" arabic-form="isolated" d="M976 1135v-82q-74 -4 -112 -18q-80 -30 -80 -63q0 -28 14 -46q12 -16 80 -26q102 -15 102 -103q0 -110 -88 -152q-82 -39 -160 -39q-66 0 -122 11v88q68 -10 113 -10q60 0 117 26q60 26 60 56q0 38 -78 55q-74 16 -92 44q-32 47 -31 93q2 81 77 119q85 43 200 47z M1219 281q76 73 76 330v945h184v-945q0 -327 -110 -450q-149 -167 -370 -198q-136 -19 -254 -18q-207 2 -308 32q-293 88 -293 283q0 75 16 128h184q-14 -58 -14 -102q2 -92 162 -138q121 -35 248 -35q140 0 229 27q152 47 250 141z" />
<glyph unicode="&#x643;" horiz-adv-x="1726" arabic-form="final" d="M976 1135v-82q-74 -4 -112 -18q-80 -30 -80 -63q0 -28 14 -46q12 -16 80 -26q102 -15 102 -103q0 -110 -88 -152q-82 -39 -160 -39q-66 0 -122 11v88q68 -10 113 -10q60 0 117 26q60 26 60 56q0 38 -78 55q-74 16 -92 44q-32 47 -31 93q2 81 77 119q85 43 200 47z M999 -37q-109 -20 -254 -18q-207 2 -308 32q-293 88 -293 283q0 75 16 128h184q-14 -58 -14 -102q2 -92 162 -138q121 -35 248 -35q140 0 229 27q152 47 250 141q76 73 76 330v945h184v-1173q0 -106 49 -155q44 -44 143 -44h75v-184h-130q-153 0 -266 123 q-158 -126 -351 -160z" />
<glyph unicode="&#x643;" horiz-adv-x="975" arabic-form="initial" d="M310 0h-330v184h310q148 0 193 104q16 36 16 72q0 69 -54 135l-310 380q-50 61 -50 142q0 35 10 68q31 118 135 161l745 310v-186l-595 -250q-71 -30 -92 -70q-6 -11 -6 -36q0 -32 31 -69l275 -330q102 -123 102 -246q0 -113 -62 -214q-95 -155 -318 -155z" />
<glyph unicode="&#x643;" horiz-adv-x="1131" arabic-form="medial" d="M310 0h-330v184h310q148 0 193 104q16 36 16 72q0 69 -54 135l-310 380q-50 61 -50 142q0 35 10 68q31 118 135 161l745 310v-186l-595 -250q-71 -30 -92 -70q-6 -11 -6 -36q0 -32 31 -69l583 -705q22 -26 60 -40q43 -16 107 -16h88v-184h-132q-65 0 -123 24 q-103 43 -136 84l-97 120q-21 -46 -38 -73q-95 -155 -315 -155z" />
<glyph unicode="&#x644;" horiz-adv-x="1488" arabic-form="isolated" d="M1042 73q78 126 78 353v1130h184v-1130q0 -317 -98 -461q-121 -177 -382 -243q-134 -34 -219 -34q-95 0 -168 22q-292 92 -293 365q-1 138 63 230h184q-65 -115 -65 -230q0 -130 166 -192q40 -16 113 -16q80 0 189 34q174 53 248 172z" />
<glyph unicode="&#x644;" horiz-adv-x="1551" arabic-form="final" d="M1042 73q78 126 78 353v1130h184v-1173q0 -106 49 -155q44 -44 143 -44h75v-184h-130q-112 0 -190 51q-18 -46 -45 -86q-121 -177 -382 -243q-134 -34 -219 -34q-99 0 -168 22q-292 91 -293 365q-1 138 63 230h184q-65 -115 -65 -230q0 -126 166 -192q40 -16 113 -16 q80 0 189 34q174 53 248 172z" />
<glyph unicode="&#x644;" horiz-adv-x="624" arabic-form="initial" d="M431 371q0 -178 -87 -279q-80 -92 -234 -92h-130v184h75q99 0 143 44q49 49 49 155v1173h184v-1185z" />
<glyph unicode="&#x644;" horiz-adv-x="678" arabic-form="medial" d="M339 86q-77 -86 -229 -86h-130v184h75q99 0 143 44q49 49 49 155v1173h184v-1173q0 -106 49 -155q44 -44 143 -44h75v-184h-130q-150 0 -229 86z" />
<glyph unicode="&#x645;" horiz-adv-x="1268" arabic-form="isolated" d="M610 295q122 -42 198 -42q44 0 65 22q53 57 53 115q0 24 -6 44q-21 88 -80 105q-40 12 -86 12q-59 0 -86 -27q-68 -68 -68 -136q0 -40 10 -93zM490 155q-50 28 -125 -50q-25 -26 -25 -105v-492h-200v492q0 173 120 275q65 55 155 55q-2 42 -2 82q0 148 162 280 q77 63 169 63q77 0 156 -36q182 -83 210 -250q8 -45 8 -101q0 -146 -98 -211q-120 -80 -208 -80q-178 -2 -322 78z" />
<glyph unicode="&#x645;" horiz-adv-x="1363" arabic-form="final" d="M610 168q122 -42 198 -42q44 0 65 22q53 57 53 115q0 24 -6 44q-21 88 -80 105q-40 12 -86 12q-59 0 -86 -27q-68 -68 -68 -136q0 -40 10 -93zM1048 52q-15 -14 -28 -22q-133 -80 -208 -80q-181 0 -322 78q-50 28 -125 -50q-25 -26 -25 -105v-365h-200v365q0 173 120 275 q65 55 155 55q-2 42 -2 82q0 148 162 280q77 63 169 63q72 0 156 -36q170 -71 210 -250q15 -67 55 -111q38 -44 143 -44h75v-184h-130q-175 0 -205 49z" />
<glyph unicode="&#x645;" horiz-adv-x="1097" arabic-form="initial" d="M868 52q-97 -102 -244 -102q-206 0 -316 98q-64 -48 -168 -48h-160v184h116q52 0 95.5 35.5t48.5 84.5q20 181 155 261q94 56 175 56q176 0 267 -84q97 -89 97 -273q0 -143 -66 -212zM406 199q62 -69 221 -69q47 0 66 18q52 53 52 122q0 75 -40 113q-42 41 -130 41 q-46 0 -91.5 -30t-60.5 -127q-7 -37 -17 -68z" />
<glyph unicode="&#x645;" horiz-adv-x="1184" arabic-form="medial" d="M868 52q-97 -102 -236 -102q-214 0 -324 98q-64 -48 -168 -48h-160v184h116q52 0 96 36q43 35 48 84q20 181 155 261q94 56 187 56q72 0 138 -29q193 -83 210 -250q5 -49 56 -111q36 -44 143 -44h75v-184h-130q-176 0 -206 49zM406 199q62 -69 221 -69q47 0 66 18 q52 53 52 122q0 19 -5 37q-22 88 -80 105q-39 12 -78 12q-53 0 -94 -27q-50 -33 -65 -130q-7 -37 -17 -68z" />
<glyph unicode="&#x646;" horiz-adv-x="1504" arabic-form="isolated" d="M575 950h150v-150h-150v150zM1352 312q0 -173 -100 -351q-110 -197 -359 -265q-97 -27 -177 -27q-132 0 -241 37q-328 106 -328 462q0 235 47 316h184q-49 -144 -49 -316q0 -237 201 -289q93 -24 186 -24q76 0 147 20q193 53 269 275q34 98 34 194q0 184 -102 406h184 q104 -156 104 -438z" />
<glyph unicode="&#x646;" horiz-adv-x="1559" arabic-form="final" d="M1248 581q44 -97 71 -193q22 -80 72 -140q53 -64 113 -64h75v-184h-130q-71 0 -105 48q-3 -109 -92 -256q-120 -199 -359 -265q-97 -27 -189 -27q-116 0 -229 37q-328 107 -328 462q0 175 47 316h184q-49 -137 -49 -316q0 -236 201 -289q90 -24 166 -24q88 0 167 20 q194 48 269 275q33 101 33 213q0 184 -101 387h184zM575 700h150v-150h-150v150z" />
<glyph unicode="&#x646;" horiz-adv-x="570" arabic-form="initial" d="M224 1000h150v-150h-150v150zM299 86q-72 -86 -229 -86h-90v184h35q99 0 143 44q49 49 49 155v217h184v-217q0 -187 -92 -297z" />
<glyph unicode="&#x646;" horiz-adv-x="618" arabic-form="medial" d="M224 1000h150v-150h-150v150zM299 86q-77 -86 -229 -86h-90v184h35q99 0 143 44q49 49 49 155v217h184v-217q0 -106 49 -155q44 -44 143 -44h55v-184h-110q-150 0 -229 86z" />
<glyph unicode="&#x647;" horiz-adv-x="1073" arabic-form="isolated" d="M443 554q-66 0 -99 -87q-26 -69 -25 -192q1 -82 56 -126q57 -44 114 -44q91 0 184 57q75 46 75 131q0 77 -66 142q-123 120 -239 119zM407 734q198 0 380 -160q141 -124 141 -272q-1 -200 -148 -275q-165 -85 -297 -85q-96 0 -177 35q-167 74 -167 313q0 181 37 259 q84 185 231 185z" />
<glyph unicode="&#x647;" horiz-adv-x="1098" arabic-form="final" d="M676 282q-15 42 -28 91q-13 50 -25 151q-120 -12 -202 -79q-111 -89 -109 -151q1 -41 91 -66t273 54zM609 668q-4 39 -7 82h184q1 -168 37 -342q21 -101 77 -180q31 -44 143 -44h75v-184h-130q-90 0 -163 51q-45 31 -83 90q-138 -73 -294 -73q-56 0 -114 15 q-189 48 -189 202q0 173 204 300q109 68 260 83z" />
<glyph unicode="&#x647;" horiz-adv-x="1080" arabic-form="initial" d="M404 269q36 27 70 91q39 72 39 133q0 46 -15 83q-22 52 -80 52q-65 0 -88 -45q-22 -43 -22 -78q0 -30 7 -67q21 -118 89 -169zM87 184q52 0 130 11q-45 105 -60 174q-18 78 -18 142q0 84 45 167q48 90 125 81q-44 39 -125 53v185q223 -68 439 -247q256 -209 320 -431 q14 -52 14 -109q0 -103 -40 -164q-74 -113 -249 -113q-131 0 -285 108q-120 -41 -266 -41h-137v184h107zM663 508q6 -37 6 -76q0 -147 -98 -252q-12 -14 -29 -33q52 -46 101 -46q125 0 142 67q7 30 7 63q0 60 -33 138q-29 69 -96 139z" />
<glyph unicode="&#x647;" horiz-adv-x="944" arabic-form="medial" d="M339 184h19q42 0 138 76q114 90 114 142q0 112 -84 112q-75 0 -149 -141q-38 -72 -38 -189zM155 184q9 266 138 392q108 107 237 107q138 0 207 -99q46 -67 46 -181q0 -111 -163 -219h344v-184h-344q163 -108 163 -219q0 -114 -46 -181q-69 -99 -207 -99q-129 0 -237 107 q-129 128 -138 392h-175v184h175zM339 0q0 -117 38 -189q74 -141 149 -141q84 0 84 112q0 52 -114 142q-96 76 -138 76h-19z" />
<glyph unicode="&#x648;" horiz-adv-x="989" arabic-form="isolated" d="M494 452q-63 0 -107 -57q-24 -33 -24 -69q0 -51 51 -98q47 -44 239 -44q0 184 -86 243q-37 25 -73 25zM832 184q0 -308 -172 -468q-95 -88 -188 -130q-192 -86 -557 -86v184q359 0 493 76q168 95 230 243q-118 0 -163 10q-150 33 -190 67q-116 98 -116 235q0 141 89 228 q104 103 241 103q89 0 161 -51q130 -90 155 -233q17 -102 17 -178z" />
<glyph unicode="&#x648;" horiz-adv-x="1058" arabic-form="final" d="M653 184q0 76 -16 133q-24 80 -70 110q-60 41 -120 15q-67 -29 -80 -85q-17 -75 47 -129q47 -40 239 -44zM832 184h246v-184h-194l-70 1q-25 -156 -154 -285q-83 -83 -188 -130q-192 -86 -557 -86v184q361 0 493 76q168 95 230 243q-118 3 -163 10q-139 24 -190 67 q-106 89 -116 224q-2 31 8 88q27 155 203 230q59 25 124 24q87 -2 156 -51q133 -92 155 -233q13 -83 17 -178z" />
<glyph unicode="&#x649;" horiz-adv-x="1603" arabic-form="isolated" d="M1366 12q-102 -170 -445 -243q-177 -38 -297 -38q-129 0 -201 26q-293 104 -293 365q0 117 63 230h184q-66 -131 -65 -230q2 -147 166 -192q97 -26 158 -20q126 11 255 35q177 33 261 113q59 56 59 109q0 74 -126 103q-66 15 -180 61q-67 27 -125 78q-64 57 -65 172 q0 150 190 224q95 37 199 37t200 -42q141 -61 168 -234h-184q-13 61 -79 94q-40 20 -109 22q-78 2 -140 -37q-60 -38 -60 -72q0 -55 125 -97q248 -83 305 -147q77 -85 79 -174q1 -68 -43 -143z" />
<glyph unicode="&#x649;" horiz-adv-x="1707" arabic-form="final" d="M1100 -33q91 51 91 84q-1 43 -48 56q-29 8 -59 48q-44 59 -44 120q0 65 52 125q80 94 164 108q30 6 72 6q117 0 204 -134q128 -196 160 -196h35v-184h-35q-114 0 -226 172q-108 165 -134 165q-36 0 -51 -6q-45 -17 -45 -52q0 -48 65 -75q73 -30 76 -153q3 -98 -110 -184 q-128 -96 -346 -127q-89 -12 -193 -12q-188 0 -305 41q-293 103 -293 365q0 153 63 243h184q-65 -90 -65 -243q0 -114 166 -192q66 -31 245 -31q91 0 168 8q149 15 209 48z" />
<glyph unicode="&#x64a;" horiz-adv-x="1603" arabic-form="isolated" d="M750 -350h150v-150h-150v150zM500 -350h150v-150h-150v150zM1366 12q-102 -170 -445 -243q-177 -38 -297 -38q-129 0 -201 26q-293 104 -293 365q0 117 63 230h184q-66 -131 -65 -230q2 -147 166 -192q97 -26 158 -20q126 11 255 35q177 33 261 113q59 56 59 109 q0 74 -126 103q-66 15 -180 61q-67 27 -125 78q-64 57 -65 172q0 150 190 224q95 37 199 37t200 -42q141 -61 168 -234h-184q-13 61 -79 94q-40 20 -109 22q-78 2 -140 -37q-60 -38 -60 -72q0 -55 125 -97q248 -83 305 -147q77 -85 79 -174q1 -68 -43 -143z" />
<glyph unicode="&#x64a;" horiz-adv-x="1707" arabic-form="final" d="M750 -350h150v-150h-150v150zM500 -350h150v-150h-150v150zM1100 -33q91 51 91 84q-1 43 -48 56q-29 8 -59 48q-44 59 -44 120q0 65 52 125q80 94 164 108q30 6 72 6q117 0 204 -134q128 -196 160 -196h35v-184h-35q-114 0 -226 172q-108 165 -134 165q-36 0 -51 -6 q-45 -17 -45 -52q0 -48 65 -75q73 -30 76 -153q3 -98 -110 -184q-128 -96 -346 -127q-89 -12 -193 -12q-188 0 -305 41q-293 103 -293 365q0 153 63 243h184q-65 -90 -65 -243q0 -114 166 -192q66 -31 245 -31q91 0 168 8q149 15 209 48z" />
<glyph unicode="&#x64a;" horiz-adv-x="570" arabic-form="initial" d="M299 86q-72 -86 -229 -86h-90v184h35q99 0 143 44q49 49 49 155v217h184v-217q0 -187 -92 -297zM349 -150h150v-150h-150v150zM99 -150h150v-150h-150v150z" />
<glyph unicode="&#x64a;" horiz-adv-x="618" arabic-form="medial" d="M299 86q-77 -86 -229 -86h-90v184h35q99 0 143 44q49 49 49 155v217h184v-217q0 -106 49 -155q44 -44 143 -44h55v-184h-110q-150 0 -229 86zM349 -150h150v-150h-150v150zM99 -150h150v-150h-150v150z" />
<glyph unicode=" "  horiz-adv-x="651" />
<glyph unicode="&#x09;" horiz-adv-x="651" />
<glyph unicode="&#xa0;" horiz-adv-x="651" />
<glyph unicode="!" horiz-adv-x="821" d="M309 254h203v-254h-203v254zM309 1493h203v-655l-20 -357h-162l-21 357v655z" />
<glyph unicode="&#x22;" horiz-adv-x="942" d="M367 1493v-555h-170v555h170zM745 1493v-555h-170v555h170z" />
<glyph unicode="#" d="M1047 901h-291l-84 -334h293zM897 1470l-104 -415h292l105 415h160l-103 -415h312v-154h-351l-82 -334h318v-153h-357l-104 -414h-160l103 414h-293l-103 -414h-161l104 414h-315v153h352l84 334h-322v154h361l102 415h162z" />
<glyph unicode="$" horiz-adv-x="1303" d="M692 -301h-100l-1 301q-105 2 -210 24.5t-211 67.5v180q102 -64 206.5 -96.5t215.5 -33.5v456q-221 36 -321.5 122t-100.5 236q0 163 109 257t313 108v235h100v-232q93 -4 180 -19.5t170 -42.5v-175q-83 42 -170.5 65t-179.5 27v-427q227 -35 334 -125t107 -246 q0 -169 -113.5 -266.5t-327.5 -112.5v-303zM592 770v410q-116 -13 -177 -66t-61 -141q0 -86 56.5 -134t181.5 -69zM692 578v-433q127 17 191.5 72t64.5 145q0 88 -61.5 140t-194.5 76z" />
<glyph unicode="%" horiz-adv-x="1946" d="M1489 657q-87 0 -136.5 -74t-49.5 -206q0 -130 49.5 -204.5t136.5 -74.5q85 0 134.5 74.5t49.5 204.5q0 131 -49.5 205.5t-134.5 74.5zM1489 784q158 0 251 -110t93 -297t-93.5 -296.5t-250.5 -109.5q-160 0 -253 109.5t-93 296.5q0 188 93.5 297.5t252.5 109.5z M457 1393q-86 0 -135.5 -74.5t-49.5 -204.5q0 -132 49 -206t136 -74t136.5 74t49.5 206q0 129 -50 204t-136 75zM1360 1520h160l-934 -1549h-160zM457 1520q158 0 252 -109.5t94 -296.5q0 -189 -93.5 -298t-252.5 -109t-251.5 109.5t-92.5 297.5q0 186 93 296t251 110z" />
<glyph unicode="&#x26;" horiz-adv-x="1597" d="M498 803q-91 -81 -133.5 -161.5t-42.5 -168.5q0 -146 106 -243t266 -97q95 0 178 31.5t156 95.5zM639 915l508 -520q59 89 92 190.5t39 215.5h186q-12 -132 -64 -261t-145 -255l279 -285h-252l-143 147q-104 -89 -218 -132.5t-245 -43.5q-241 0 -394 137.5t-153 352.5 q0 128 67 240.5t201 211.5q-48 63 -73 125.5t-25 122.5q0 162 111 260.5t295 98.5q83 0 165.5 -18t167.5 -54v-182q-87 47 -166 71.5t-147 24.5q-105 0 -170.5 -55.5t-65.5 -143.5q0 -51 29.5 -102.5t120.5 -145.5z" />
<glyph unicode="'" horiz-adv-x="563" d="M367 1493v-555h-170v555h170z" />
<glyph unicode="(" horiz-adv-x="799" d="M635 1554q-134 -230 -199 -455t-65 -456t65.5 -457.5t198.5 -455.5h-160q-150 235 -224.5 462t-74.5 451q0 223 74 449t225 462h160z" />
<glyph unicode=")" horiz-adv-x="799" d="M164 1554h160q150 -236 224.5 -462t74.5 -449q0 -224 -74.5 -451t-224.5 -462h-160q133 229 198.5 455.5t65.5 457.5t-65.5 456t-198.5 455z" />
<glyph unicode="*" horiz-adv-x="1024" d="M963 1247l-359 -194l359 -195l-58 -98l-336 203v-377h-114v377l-336 -203l-58 98l359 195l-359 194l58 99l336 -203v377h114v-377l336 203z" />
<glyph unicode="+" d="M942 1284v-557h557v-170h-557v-557h-168v557h-557v170h557v557h168z" />
<glyph unicode="," horiz-adv-x="651" d="M240 254h211v-172l-164 -320h-129l82 320v172z" />
<glyph unicode="-" horiz-adv-x="739" d="M100 643h539v-164h-539v164z" />
<glyph unicode="." horiz-adv-x="651" d="M219 254h211v-254h-211v254z" />
<glyph unicode="/" horiz-adv-x="690" d="M520 1493h170l-520 -1683h-170z" />
<glyph unicode="0" horiz-adv-x="1303" d="M378 495l528 522l25 -26l-530 -524zM651 1360q-156 0 -234.5 -153.5t-78.5 -461.5q0 -307 78.5 -460.5t234.5 -153.5q157 0 235.5 153.5t78.5 460.5q0 308 -78.5 461.5t-235.5 153.5zM651 1520q251 0 383.5 -198.5t132.5 -576.5q0 -377 -132.5 -575.5t-383.5 -198.5 t-383.5 198.5t-132.5 575.5q0 378 132.5 576.5t383.5 198.5z" />
<glyph unicode="1" horiz-adv-x="1303" d="M254 170h330v1139l-359 -72v184l357 72h202v-1323h330v-170h-860v170z" />
<glyph unicode="2" horiz-adv-x="1303" d="M393 170h705v-170h-948v170q115 119 313.5 319.5t249.5 258.5q97 109 135.5 184.5t38.5 148.5q0 119 -83.5 194t-217.5 75q-95 0 -200.5 -33t-225.5 -100v204q122 49 228 74t194 25q232 0 370 -116t138 -310q0 -92 -34.5 -174.5t-125.5 -194.5q-25 -29 -159 -167.5 t-378 -387.5z" />
<glyph unicode="3" horiz-adv-x="1303" d="M831 805q145 -31 226.5 -129t81.5 -242q0 -221 -152 -342t-432 -121q-94 0 -193.5 18.5t-205.5 55.5v195q84 -49 184 -74t209 -25q190 0 289.5 75t99.5 218q0 132 -92.5 206.5t-257.5 74.5h-174v166h182q149 0 228 59.5t79 171.5q0 115 -81.5 176.5t-233.5 61.5 q-83 0 -178 -18t-209 -56v180q115 32 215.5 48t189.5 16q230 0 364 -104.5t134 -282.5q0 -124 -71 -209.5t-202 -118.5z" />
<glyph unicode="4" horiz-adv-x="1303" d="M774 1317l-510 -797h510v797zM721 1493h254v-973h213v-168h-213v-352h-201v352h-674v195z" />
<glyph unicode="5" horiz-adv-x="1303" d="M221 1493h793v-170h-608v-366q44 15 88 22.5t88 7.5q250 0 396 -137t146 -371q0 -241 -150 -374.5t-423 -133.5q-94 0 -191.5 16t-201.5 48v203q90 -49 186 -73t203 -24q173 0 274 91t101 247t-101 247t-274 91q-81 0 -161.5 -18t-164.5 -56v750z" />
<glyph unicode="6" horiz-adv-x="1303" d="M676 827q-136 0 -215.5 -93t-79.5 -255q0 -161 79.5 -254.5t215.5 -93.5t215.5 93.5t79.5 254.5q0 162 -79.5 255t-215.5 93zM1077 1460v-184q-76 36 -153.5 55t-153.5 19q-200 0 -305.5 -135t-120.5 -408q59 87 148 133.5t196 46.5q225 0 355.5 -136.5t130.5 -371.5 q0 -230 -136 -369t-362 -139q-259 0 -396 198.5t-137 575.5q0 354 168 564.5t451 210.5q76 0 153.5 -15t161.5 -45z" />
<glyph unicode="7" horiz-adv-x="1303" d="M168 1493h960v-86l-542 -1407h-211l510 1323h-717v170z" />
<glyph unicode="8" horiz-adv-x="1303" d="M651 709q-144 0 -226.5 -77t-82.5 -212t82.5 -212t226.5 -77t227 77.5t83 211.5q0 135 -82.5 212t-227.5 77zM449 795q-130 32 -202.5 121t-72.5 217q0 179 127.5 283t349.5 104q223 0 350 -104t127 -283q0 -128 -72.5 -217t-201.5 -121q146 -34 227.5 -133t81.5 -242 q0 -217 -132.5 -333t-379.5 -116t-379.5 116t-132.5 333q0 143 82 242t228 133zM375 1114q0 -116 72.5 -181t203.5 -65q130 0 203.5 65t73.5 181t-73.5 181t-203.5 65q-131 0 -203.5 -65t-72.5 -181z" />
<glyph unicode="9" horiz-adv-x="1303" d="M225 31v184q76 -36 154 -55t153 -19q200 0 305.5 134.5t120.5 408.5q-58 -86 -147 -132t-197 -46q-224 0 -354.5 135.5t-130.5 370.5q0 230 136 369t362 139q259 0 395.5 -198.5t136.5 -576.5q0 -353 -167.5 -563.5t-450.5 -210.5q-76 0 -154 15t-162 45zM627 664 q136 0 215.5 93t79.5 255q0 161 -79.5 254.5t-215.5 93.5t-215.5 -93.5t-79.5 -254.5q0 -162 79.5 -255t215.5 -93z" />
<glyph unicode=":" horiz-adv-x="690" d="M240 254h211v-254h-211v254zM240 1059h211v-254h-211v254z" />
<glyph unicode=";" horiz-adv-x="690" d="M240 1059h211v-254h-211v254zM240 254h211v-172l-164 -320h-129l82 320v172z" />
<glyph unicode="&#x3c;" d="M1499 1008l-1032 -367l1032 -365v-182l-1282 465v166l1282 465v-182z" />
<glyph unicode="=" d="M217 930h1282v-168h-1282v168zM217 522h1282v-170h-1282v170z" />
<glyph unicode="&#x3e;" d="M217 1008v182l1282 -465v-166l-1282 -465v182l1030 365z" />
<glyph unicode="?" horiz-adv-x="1087" d="M391 254h203v-254h-203v254zM588 401h-191v154q0 101 28 166t118 151l90 89q57 53 82.5 100t25.5 96q0 89 -65.5 144t-173.5 55q-79 0 -168.5 -35t-186.5 -102v188q94 57 190.5 85t199.5 28q184 0 295.5 -97t111.5 -256q0 -76 -36 -144.5t-126 -154.5l-88 -86 q-47 -47 -66.5 -73.5t-27.5 -51.5q-6 -21 -9 -51t-3 -82v-123z" />
<glyph unicode="@" horiz-adv-x="2048" d="M762 537q0 -143 71 -224.5t195 -81.5q123 0 193.5 82t70.5 224q0 140 -72 222.5t-194 82.5q-121 0 -192.5 -82t-71.5 -223zM1307 238q-60 -77 -137.5 -113.5t-180.5 -36.5q-172 0 -279.5 124.5t-107.5 324.5t108 325t279 125q103 0 181 -37.5t137 -113.5v131h143v-736 q146 22 228.5 133.5t82.5 288.5q0 107 -31.5 201t-95.5 174q-104 131 -253.5 200.5t-325.5 69.5q-123 0 -236 -32.5t-209 -96.5q-157 -102 -245.5 -267.5t-88.5 -358.5q0 -159 57.5 -298t166.5 -245q105 -104 243 -158.5t295 -54.5q129 0 253.5 43.5t228.5 124.5l90 -111 q-125 -97 -272.5 -148.5t-299.5 -51.5q-185 0 -349 65.5t-292 190.5t-195 289.5t-67 353.5q0 182 68 347t194 290q129 127 298 194.5t358 67.5q212 0 393.5 -87t304.5 -247q75 -98 114.5 -213t39.5 -238q0 -263 -159 -415t-439 -158v154z" />
<glyph unicode="A" horiz-adv-x="1401" d="M700 1294l-274 -743h549zM586 1493h229l569 -1493h-210l-136 383h-673l-136 -383h-213z" />
<glyph unicode="B" horiz-adv-x="1405" d="M403 713v-547h324q163 0 241.5 67.5t78.5 206.5q0 140 -78.5 206.5t-241.5 66.5h-324zM403 1327v-450h299q148 0 220.5 55.5t72.5 169.5q0 113 -72.5 169t-220.5 56h-299zM201 1493h516q231 0 356 -96t125 -273q0 -137 -64 -218t-188 -101q149 -32 231.5 -133.5 t82.5 -253.5q0 -200 -136 -309t-387 -109h-536v1493z" />
<glyph unicode="C" horiz-adv-x="1430" d="M1319 1378v-213q-102 95 -217.5 142t-245.5 47q-256 0 -392 -156.5t-136 -452.5q0 -295 136 -451.5t392 -156.5q130 0 245.5 47t217.5 142v-211q-106 -72 -224.5 -108t-250.5 -36q-339 0 -534 207.5t-195 566.5q0 360 195 567.5t534 207.5q134 0 252.5 -35.5 t222.5 -106.5z" />
<glyph unicode="D" horiz-adv-x="1577" d="M403 1327v-1161h244q309 0 452.5 140t143.5 442q0 300 -143.5 439.5t-452.5 139.5h-244zM201 1493h415q434 0 637 -180.5t203 -564.5q0 -386 -204 -567t-636 -181h-415v1493z" />
<glyph unicode="E" horiz-adv-x="1294" d="M201 1493h944v-170h-742v-442h711v-170h-711v-541h760v-170h-962v1493z" />
<glyph unicode="F" horiz-adv-x="1178" d="M201 1493h858v-170h-656v-440h592v-170h-592v-713h-202v1493z" />
<glyph unicode="G" horiz-adv-x="1587" d="M1219 213v401h-330v166h530v-641q-117 -83 -258 -125.5t-301 -42.5q-350 0 -547.5 204.5t-197.5 569.5q0 366 197.5 570.5t547.5 204.5q146 0 277.5 -36t242.5 -106v-215q-112 95 -238 143t-265 48q-274 0 -411.5 -153t-137.5 -456q0 -302 137.5 -455t411.5 -153 q107 0 191 18.5t151 57.5z" />
<glyph unicode="H" horiz-adv-x="1540" d="M201 1493h202v-612h734v612h202v-1493h-202v711h-734v-711h-202v1493z" />
<glyph unicode="I" horiz-adv-x="757" d="M198 1495h362v-125h-80v-1246h80l-1 -124h-361v124h80v1248h-80v123z" />
<glyph unicode="J" horiz-adv-x="604" d="M201 1493h202v-1389q0 -270 -102.5 -392t-329.5 -122h-77v170h63q134 0 189 75t55 269v1389z" />
<glyph unicode="K" horiz-adv-x="1343" d="M201 1493h202v-631l670 631h260l-741 -696l794 -797h-266l-717 719v-719h-202v1493z" />
<glyph unicode="L" horiz-adv-x="1141" d="M201 1493h202v-1323h727v-170h-929v1493z" />
<glyph unicode="M" horiz-adv-x="1767" d="M201 1493h301l381 -1016l383 1016h301v-1493h-197v1311l-385 -1024h-203l-385 1024v-1311h-196v1493z" />
<glyph unicode="N" horiz-adv-x="1532" d="M201 1493h272l662 -1249v1249h196v-1493h-272l-662 1249v-1249h-196v1493z" />
<glyph unicode="O" horiz-adv-x="1612" d="M807 1356q-220 0 -349.5 -164t-129.5 -447q0 -282 129.5 -446t349.5 -164t348.5 164t128.5 446q0 283 -128.5 447t-348.5 164zM807 1520q314 0 502 -210.5t188 -564.5q0 -353 -188 -563.5t-502 -210.5q-315 0 -503.5 210t-188.5 564t188.5 564.5t503.5 210.5z" />
<glyph unicode="P" horiz-adv-x="1235" d="M403 1327v-561h254q141 0 218 73t77 208q0 134 -77 207t-218 73h-254zM201 1493h456q251 0 379.5 -113.5t128.5 -332.5q0 -221 -128.5 -334t-379.5 -113h-254v-600h-202v1493z" />
<glyph unicode="Q" horiz-adv-x="1612" d="M807 1356q-220 0 -349.5 -164t-129.5 -447q0 -282 129.5 -446t349.5 -164t348.5 164t128.5 446q0 283 -128.5 447t-348.5 164zM1090 27l266 -291h-244l-221 239q-33 -2 -50.5 -3t-33.5 -1q-315 0 -503.5 210.5t-188.5 563.5q0 354 188.5 564.5t503.5 210.5 q314 0 502 -210.5t188 -564.5q0 -260 -104.5 -445t-302.5 -273z" />
<glyph unicode="R" horiz-adv-x="1423" d="M909 700q65 -22 126.5 -94t123.5 -198l205 -408h-217l-191 383q-74 150 -143.5 199t-189.5 49h-220v-631h-202v1493h456q256 0 382 -107t126 -323q0 -141 -65.5 -234t-190.5 -129zM403 1327v-530h254q146 0 220.5 67.5t74.5 198.5t-74.5 197.5t-220.5 66.5h-254z" />
<glyph unicode="S" horiz-adv-x="1300" d="M1096 1444v-197q-115 55 -217 82t-197 27q-165 0 -254.5 -64t-89.5 -182q0 -99 59.5 -149.5t225.5 -81.5l122 -25q226 -43 333.5 -151.5t107.5 -290.5q0 -217 -145.5 -329t-426.5 -112q-106 0 -225.5 24t-247.5 71v208q123 -69 241 -104t232 -35q173 0 267 68t94 194 q0 110 -67.5 172t-221.5 93l-123 24q-226 45 -327 141t-101 267q0 198 139.5 312t384.5 114q105 0 214 -19t223 -57z" />
<glyph unicode="T" horiz-adv-x="1251" d="M-6 1493h1263v-170h-530v-1323h-203v1323h-530v170z" />
<glyph unicode="U" horiz-adv-x="1499" d="M178 1493h203v-907q0 -240 87 -345.5t282 -105.5q194 0 281 105.5t87 345.5v907h203v-932q0 -292 -144.5 -441t-426.5 -149q-283 0 -427.5 149t-144.5 441v932z" />
<glyph unicode="V" horiz-adv-x="1401" d="M586 0l-570 1493h211l473 -1257l474 1257h210l-569 -1493h-229z" />
<glyph unicode="W" horiz-adv-x="2025" d="M68 1493h204l314 -1262l313 1262h227l314 -1262l313 1262h205l-375 -1493h-254l-315 1296l-318 -1296h-254z" />
<glyph unicode="X" horiz-adv-x="1403" d="M129 1493h217l371 -555l373 555h217l-480 -717l512 -776h-217l-420 635l-423 -635h-218l533 797z" />
<glyph unicode="Y" horiz-adv-x="1251" d="M-4 1493h217l414 -614l411 614h217l-528 -782v-711h-203v711z" />
<glyph unicode="Z" horiz-adv-x="1403" d="M115 1493h1173v-154l-944 -1169h967v-170h-1219v154l944 1169h-921v170z" />
<glyph unicode="[" horiz-adv-x="799" d="M176 1556h424v-143h-240v-1540h240v-143h-424v1826z" />
<glyph unicode="\" horiz-adv-x="690" d="M170 1493l520 -1683h-170l-520 1683h170z" />
<glyph unicode="]" horiz-adv-x="799" d="M623 1556v-1826h-424v143h239v1540h-239v143h424z" />
<glyph unicode="^" d="M956 1493l543 -557h-201l-440 395l-440 -395h-201l543 557h196z" />
<glyph unicode="_" horiz-adv-x="1024" d="M1044 -340v-143h-1064v143h1064z" />
<glyph unicode="`" horiz-adv-x="1024" d="M367 1638l282 -374h-153l-326 374h197z" />
<glyph unicode="a" horiz-adv-x="1255" d="M702 563q-223 0 -309 -51t-86 -174q0 -98 64.5 -155.5t175.5 -57.5q153 0 245.5 108.5t92.5 288.5v41h-183zM1069 639v-639h-184v170q-63 -102 -157 -150.5t-230 -48.5q-172 0 -273.5 96.5t-101.5 258.5q0 189 126.5 285t377.5 96h258v18q0 127 -83.5 196.5t-234.5 69.5 q-96 0 -187 -23t-175 -69v170q101 39 196 58.5t185 19.5q243 0 363 -126t120 -382z" />
<glyph unicode="b" horiz-adv-x="1300" d="M997 559q0 203 -83.5 318.5t-229.5 115.5t-229.5 -115.5t-83.5 -318.5t83.5 -318.5t229.5 -115.5t229.5 115.5t83.5 318.5zM371 950q58 100 146.5 148.5t211.5 48.5q204 0 331.5 -162t127.5 -426t-127.5 -426t-331.5 -162q-123 0 -211.5 48.5t-146.5 148.5v-168h-185 v1556h185v-606z" />
<glyph unicode="c" horiz-adv-x="1126" d="M999 1077v-172q-78 43 -156.5 64.5t-158.5 21.5q-179 0 -278 -113.5t-99 -318.5t99 -318.5t278 -113.5q80 0 158.5 21.5t156.5 64.5v-170q-77 -36 -159.5 -54t-175.5 -18q-253 0 -402 159t-149 429q0 274 150.5 431t412.5 157q85 0 166 -17.5t157 -52.5z" />
<glyph unicode="d" horiz-adv-x="1300" d="M930 950v606h184v-1556h-184v168q-58 -100 -146.5 -148.5t-212.5 -48.5q-203 0 -330.5 162t-127.5 426t127.5 426t330.5 162q124 0 212.5 -48.5t146.5 -148.5zM303 559q0 -203 83.5 -318.5t229.5 -115.5t230 115.5t84 318.5t-84 318.5t-230 115.5t-229.5 -115.5 t-83.5 -318.5z" />
<glyph unicode="e" horiz-adv-x="1260" d="M1151 606v-90h-846q12 -190 114.5 -289.5t285.5 -99.5q106 0 205.5 26t197.5 78v-174q-99 -42 -203 -64t-211 -22q-268 0 -424.5 156t-156.5 422q0 275 148.5 436.5t400.5 161.5q226 0 357.5 -145.5t131.5 -395.5zM967 660q-2 151 -84.5 241t-218.5 90q-154 0 -246.5 -87 t-106.5 -245z" />
<glyph unicode="f" horiz-adv-x="721" d="M760 1556v-153h-176q-99 0 -137.5 -40t-38.5 -144v-99h303v-143h-303v-977h-185v977h-176v143h176v78q0 187 87 272.5t276 85.5h174z" />
<glyph unicode="g" horiz-adv-x="1300" d="M930 573q0 200 -82.5 310t-231.5 110q-148 0 -230.5 -110t-82.5 -310q0 -199 82.5 -309t230.5 -110q149 0 231.5 110t82.5 309zM1114 139q0 -286 -127 -425.5t-389 -139.5q-97 0 -183 14.5t-167 44.5v179q81 -44 160 -65t161 -21q181 0 271 94.5t90 285.5v91 q-57 -99 -146 -148t-213 -49q-206 0 -332 157t-126 416q0 260 126 417t332 157q124 0 213 -49t146 -148v170h184v-981z" />
<glyph unicode="h" horiz-adv-x="1298" d="M1124 676v-676h-184v670q0 159 -62 238t-186 79q-149 0 -235 -95t-86 -259v-633h-185v1556h185v-610q66 101 155.5 151t206.5 50q193 0 292 -119.5t99 -351.5z" />
<glyph unicode="i" horiz-adv-x="569" d="M193 1120h184v-1120h-184v1120zM193 1556h184v-233h-184v233z" />
<glyph unicode="j" horiz-adv-x="569" d="M193 1120h184v-1140q0 -214 -81.5 -310t-262.5 -96h-70v156h49q105 0 143 48.5t38 201.5v1140zM193 1556h184v-233h-184v233z" />
<glyph unicode="k" horiz-adv-x="1186" d="M186 1556h185v-919l549 483h235l-594 -524l619 -596h-240l-569 547v-547h-185v1556z" />
<glyph unicode="l" horiz-adv-x="757" d="M190 148l3 1408h184l-2 -1320l2 -14l3 -13l7 -10l10 -9l13 -5l14 -5l19 -2l93 46l76 -140l-104 -60l-96 -24h-72l-50 10l-38 18l-30 26l-20 40z" />
<glyph unicode="m" horiz-adv-x="1995" d="M1065 905q69 124 165 183t226 59q175 0 270 -122.5t95 -348.5v-676h-185v670q0 161 -57 239t-174 78q-143 0 -226 -95t-83 -259v-633h-185v670q0 162 -57 239.5t-176 77.5q-141 0 -224 -95.5t-83 -258.5v-633h-185v1120h185v-174q63 103 151 152t209 49q122 0 207.5 -62 t126.5 -180z" />
<glyph unicode="n" horiz-adv-x="1298" d="M1124 676v-676h-184v670q0 159 -62 238t-186 79q-149 0 -235 -95t-86 -259v-633h-185v1120h185v-174q66 101 155.5 151t206.5 50q193 0 292 -119.5t99 -351.5z" />
<glyph unicode="o" horiz-adv-x="1253" d="M627 991q-148 0 -234 -115.5t-86 -316.5t85.5 -316.5t234.5 -115.5q147 0 233 116t86 316q0 199 -86 315.5t-233 116.5zM627 1147q240 0 377 -156t137 -432q0 -275 -137 -431.5t-377 -156.5q-241 0 -377.5 156.5t-136.5 431.5q0 276 136.5 432t377.5 156z" />
<glyph unicode="p" horiz-adv-x="1300" d="M371 168v-594h-185v1546h185v-170q58 100 146.5 148.5t211.5 48.5q204 0 331.5 -162t127.5 -426t-127.5 -426t-331.5 -162q-123 0 -211.5 48.5t-146.5 148.5zM997 559q0 203 -83.5 318.5t-229.5 115.5t-229.5 -115.5t-83.5 -318.5t83.5 -318.5t229.5 -115.5t229.5 115.5 t83.5 318.5z" />
<glyph unicode="q" horiz-adv-x="1300" d="M303 559q0 -203 83.5 -318.5t229.5 -115.5t230 115.5t84 318.5t-84 318.5t-230 115.5t-229.5 -115.5t-83.5 -318.5zM930 168q-58 -100 -146.5 -148.5t-212.5 -48.5q-203 0 -330.5 162t-127.5 426t127.5 426t330.5 162q124 0 212.5 -48.5t146.5 -148.5v170h184v-1546h-184 v594z" />
<glyph unicode="r" horiz-adv-x="842" d="M842 948q-31 18 -67.5 26.5t-80.5 8.5q-156 0 -239.5 -101.5t-83.5 -291.5v-590h-185v1120h185v-174q58 102 151 151.5t226 49.5q19 0 42 -2.5t51 -7.5z" />
<glyph unicode="s" horiz-adv-x="1067" d="M907 1087v-174q-78 40 -162 60t-174 20q-137 0 -205.5 -42t-68.5 -126q0 -64 49 -100.5t197 -69.5l63 -14q196 -42 278.5 -118.5t82.5 -213.5q0 -156 -123.5 -247t-339.5 -91q-90 0 -187.5 17.5t-205.5 52.5v190q102 -53 201 -79.5t196 -26.5q130 0 200 44.5t70 125.5 q0 75 -50.5 115t-221.5 77l-64 15q-171 36 -247 110.5t-76 204.5q0 158 112 244t318 86q102 0 192 -15t166 -45z" />
<glyph unicode="t" horiz-adv-x="803" d="M375 1438v-318h379v-143h-379v-608q0 -137 37.5 -176t152.5 -39h189v-154h-189q-213 0 -294 79.5t-81 289.5v608h-135v143h135v318h185z" />
<glyph unicode="u" horiz-adv-x="1298" d="M174 442v678h184v-671q0 -159 62 -238.5t186 -79.5q149 0 235.5 95t86.5 259v635h184v-1120h-184v172q-67 -102 -155.5 -151.5t-205.5 -49.5q-193 0 -293 120t-100 351zM637 1147z" />
<glyph unicode="v" horiz-adv-x="1212" d="M61 1120h195l350 -940l350 940h195l-420 -1120h-250z" />
<glyph unicode="w" horiz-adv-x="1675" d="M86 1120h184l230 -874l229 874h217l230 -874l229 874h184l-293 -1120h-217l-241 918l-242 -918h-217z" />
<glyph unicode="x" horiz-adv-x="1212" d="M1124 1120l-405 -545l426 -575h-217l-326 440l-326 -440h-217l435 586l-398 534h217l297 -399l297 399h217z" />
<glyph unicode="y" horiz-adv-x="1212" d="M659 -104q-78 -200 -152 -261t-198 -61h-147v154h108q76 0 118 36t93 170l33 84l-453 1102h195l350 -876l350 876h195z" />
<glyph unicode="z" horiz-adv-x="1075" d="M113 1120h874v-168l-692 -805h692v-147h-899v168l692 805h-667v147z" />
<glyph unicode="{" horiz-adv-x="1303" d="M1047 -190v-144h-62q-249 0 -333.5 74t-84.5 295v239q0 151 -54 209t-196 58h-61v143h61q143 0 196.5 57.5t53.5 206.5v240q0 221 84.5 294.5t333.5 73.5h62v-143h-68q-141 0 -184 -44t-43 -185v-248q0 -157 -45.5 -228t-155.5 -96q111 -27 156 -98t45 -227v-248 q0 -141 43 -185t184 -44h68z" />
<glyph unicode="|" horiz-adv-x="690" d="M430 1565v-2048h-170v2048h170z" />
<glyph unicode="}" horiz-adv-x="1303" d="M256 -190h70q140 0 182.5 43t42.5 186v248q0 156 45 227t156 98q-111 25 -156 96t-45 228v248q0 142 -42.5 185.5t-182.5 43.5h-70v143h63q249 0 332.5 -73.5t83.5 -294.5v-240q0 -149 54 -206.5t196 -57.5h62v-143h-62q-142 0 -196 -58t-54 -209v-239q0 -221 -83.5 -295 t-332.5 -74h-63v144z" />
<glyph unicode="~" d="M1499 817v-178q-105 -79 -194.5 -113t-186.5 -34q-110 0 -256 59q-11 4 -16 6q-7 3 -22 8q-155 62 -249 62q-88 0 -174 -38.5t-184 -121.5v178q105 79 194.5 113.5t186.5 34.5q110 0 257 -60l15 -6q8 -3 22 -8q155 -62 249 -62q86 0 170.5 38t187.5 122z" />
<glyph unicode="&#xa1;" horiz-adv-x="821" d="M512 1239h-203v254h203v-254zM512 0h-203v655l21 357h162l20 -357v-655z" />
<glyph unicode="&#xa2;" horiz-adv-x="1303" d="M678 131v856q-147 -18 -229 -131t-82 -297q0 -185 82 -298t229 -130zM1059 1077v-172q-74 41 -142 62t-136 24l-1 -864q70 5 138.5 26t140.5 60v-170q-65 -30 -133.5 -47.5t-145.5 -24.5v-284h-102v288q-241 20 -373.5 173.5t-132.5 410.5q0 258 132.5 411t373.5 175v287 h102l1 -287q73 -4 141.5 -20.5t136.5 -47.5z" />
<glyph unicode="&#xa3;" horiz-adv-x="1303" d="M1102 1460v-182q-76 41 -144 61.5t-129 20.5q-148 0 -206 -77.5t-58 -289.5v-215h391v-143h-391v-465h557v-170h-993v170h236v465h-199v143h199v238q0 261 107 382.5t339 121.5q61 0 136.5 -15.5t154.5 -44.5z" />
<glyph unicode="&#xa4;" horiz-adv-x="1303" d="M891 993l207 209l114 -115l-206 -206q37 -59 55 -118.5t18 -121.5q0 -63 -19 -120.5t-59 -114.5l209 -207l-114 -113l-207 207q-59 -40 -117 -59t-119 -19q-58 0 -118 18.5t-121 55.5l-207 -207l-113 115l207 206q-37 62 -55.5 121t-18.5 117q0 64 19 122t57 114 l-207 206l115 115l207 -207q55 39 113 57.5t122 18.5q60 0 118.5 -18t119.5 -56zM922 643q0 112 -77.5 189t-191.5 77q-112 0 -191 -77t-79 -189q0 -114 78.5 -192t191.5 -78t191 78.5t78 191.5z" />
<glyph unicode="&#xa5;" horiz-adv-x="1303" d="M1165 455h-413v-455h-201v455h-416v123h416v51l-84 155h-332v123h264l-317 586h190l379 -700l377 700h191l-318 -586h264v-123h-331l-84 -155v-51h415v-123z" />
<glyph unicode="&#xa6;" horiz-adv-x="690" d="M430 408v-758h-170v758h170zM430 1432v-758h-170v758h170z" />
<glyph unicode="&#xa7;" horiz-adv-x="1024" d="M379 936q-63 -46 -94 -91t-31 -91q0 -76 69.5 -142.5t319.5 -201.5q63 45 94 90.5t31 91.5q0 75 -71.5 143t-317.5 201zM829 1462v-164q-83 39 -154.5 58.5t-127.5 19.5q-97 0 -151 -40t-54 -111q0 -90 206 -205q26 -15 40 -23q211 -119 276.5 -196t65.5 -178 q0 -90 -46 -160t-139 -123q62 -52 90.5 -106.5t28.5 -118.5q0 -142 -102 -226t-275 -84q-73 0 -150 14.5t-165 43.5v164q87 -39 161 -58.5t132 -19.5q102 0 158.5 42t56.5 118q0 102 -221 225l-25 14q-214 120 -278 196.5t-64 178.5q0 91 46.5 162.5t137.5 120.5 q-59 44 -88.5 100t-29.5 125q0 130 100 209.5t266 79.5q73 0 149.5 -14.5t155.5 -43.5z" />
<glyph unicode="&#xa8;" horiz-adv-x="1024" d="M606 1552h203v-202h-203v202zM215 1552h203v-202h-203v202z" />
<glyph unicode="&#xa9;" horiz-adv-x="2048" d="M1024 1485q152 0 283.5 -55t240.5 -164t163 -240t54 -285q0 -152 -54 -282.5t-163 -239.5t-240.5 -164t-283.5 -55t-283.5 55t-240.5 164t-163 239.5t-54 282.5q0 154 54 285t163 240t240.5 164t283.5 55zM1024 1382q-131 0 -244 -47t-207 -141t-142 -208.5t-48 -244.5 q0 -129 48 -242.5t142 -207.5t207 -141.5t244 -47.5q132 0 245.5 47.5t207.5 141.5q93 93 139.5 206t46.5 244q0 133 -47 246.5t-139 206.5q-94 94 -207.5 141t-245.5 47zM1323 1137v-129q-66 33 -131 49t-131 16q-149 0 -232.5 -87.5t-83.5 -244.5q0 -159 85.5 -246 t240.5 -87q64 0 125 15.5t127 49.5v-127q-67 -29 -135.5 -43t-138.5 -14q-216 0 -341.5 122t-125.5 330q0 209 125.5 330t341.5 121q73 0 141 -14t133 -41z" />
<glyph unicode="&#xaa;" horiz-adv-x="965" d="M139 592h688v-123h-688v123zM825 1165v-448h-149v112q-44 -63 -116 -97t-165 -34q-128 0 -204 67.5t-76 180.5q0 135 95.5 204t283.5 69h182v4q0 91 -58.5 136.5t-175.5 45.5q-62 0 -130 -17t-136 -51v127q73 28 145.5 42t141.5 14q183 0 272.5 -88t89.5 -267zM549 1104 q-161 0 -224 -33.5t-63 -112.5q0 -64 49 -102.5t131 -38.5q104 0 169 72t65 186v29h-127z" />
<glyph unicode="&#xab;" horiz-adv-x="1253" d="M1061 1059v-191l-301 -268l301 -268v-191l-469 418v82zM627 1059v-191l-301 -268l301 -268v-191l-469 418v82z" />
<glyph unicode="&#xac;" d="M217 862h1282v-575h-168v405h-1114v170z" />
<glyph unicode="&#xad;" horiz-adv-x="739" d="M100 643h539v-164h-539v164z" />
<glyph unicode="&#xae;" horiz-adv-x="2048" d="M1024 1382q-131 0 -244 -47t-207 -141t-142 -208.5t-48 -244.5q0 -129 48 -242.5t142 -207.5t207 -141.5t244 -47.5q132 0 245.5 47.5t207.5 141.5q93 93 139.5 206t46.5 244q0 133 -47 246.5t-139 206.5q-94 94 -207.5 141t-245.5 47zM1024 1485q152 0 283.5 -55 t240.5 -164t163 -240t54 -285q0 -152 -54 -282.5t-163 -239.5t-240.5 -164t-283.5 -55t-283.5 55t-240.5 164t-163 239.5t-54 282.5q0 154 54 285t163 240t240.5 164t283.5 55zM997 1071h-123v-276h123q110 0 153.5 31t43.5 106q0 76 -44 107.5t-153 31.5zM1004 1174 q176 0 263 -59.5t87 -180.5q0 -86 -52.5 -142t-148.5 -73q24 -8 57.5 -46.5t79.5 -111.5l137 -223h-172l-129 209q-59 96 -95.5 121.5t-90.5 25.5h-66v-356h-155v836h285z" />
<glyph unicode="&#xaf;" horiz-adv-x="1024" d="M213 1526h598v-148h-598v148z" />
<glyph unicode="&#xb0;" horiz-adv-x="1024" d="M512 1391q-80 0 -135 -55.5t-55 -135.5q0 -79 55 -133.5t135 -54.5t135 54.5t55 133.5t-55.5 135t-134.5 56zM512 1520q64 0 123 -24.5t102 -70.5q46 -45 69 -102t23 -123q0 -132 -92.5 -223.5t-226.5 -91.5q-135 0 -225 90t-90 225q0 134 92 227t225 93z" />
<glyph unicode="&#xb1;" d="M942 1284v-387h557v-170h-557v-387h-168v387h-557v170h557v387h168zM217 170h1282v-170h-1282v170z" />
<glyph unicode="&#xb2;" horiz-adv-x="821" d="M268 782h424v-114h-598v110q34 31 97 87q344 305 344 399q0 66 -52 106.5t-137 40.5q-52 0 -113 -17.5t-133 -52.5v123q77 28 143.5 42t123.5 14q145 0 232 -66t87 -174q0 -139 -331 -423q-56 -48 -87 -75z" />
<glyph unicode="&#xb3;" horiz-adv-x="821" d="M524 1120q92 -18 142.5 -72.5t50.5 -136.5q0 -124 -95 -191t-272 -67q-57 0 -119.5 10.5t-132.5 30.5v121q52 -27 111.5 -40t126.5 -13q109 0 169 39.5t60 109.5q0 74 -55.5 112t-163.5 38h-86v108h94q94 0 142.5 31.5t48.5 91.5q0 58 -50 88.5t-145 30.5q-40 0 -91 -9 t-132 -32v115q73 17 137 26t119 9q144 0 228.5 -59t84.5 -158q0 -69 -45 -117t-127 -66z" />
<glyph unicode="&#xb4;" horiz-adv-x="1024" d="M651 1638h199l-326 -376h-153z" />
<glyph unicode="&#xb5;" horiz-adv-x="1303" d="M174 -426v1546h184v-696q0 -145 69 -219t204 -74q148 0 222.5 84t74.5 252v653h184v-862q0 -60 17.5 -88.5t54.5 -28.5q9 0 25 5.5t44 17.5v-148q-41 -23 -77.5 -34t-71.5 -11q-69 0 -110 39t-56 119q-50 -79 -122.5 -118.5t-170.5 -39.5q-102 0 -173.5 39t-113.5 117 v-553h-184z" />
<glyph unicode="&#xb6;" horiz-adv-x="1303" d="M633 1493h448v-1690h-141v1567h-190v-1567h-142v846q-215 17 -332.5 127.5t-117.5 294.5q0 190 130 306t345 116z" />
<glyph unicode="&#xb7;" horiz-adv-x="651" d="M219 838h211v-254h-211v254z" />
<glyph unicode="&#xb8;" horiz-adv-x="1024" d="M596 0q55 -62 82 -114.5t27 -100.5q0 -89 -60 -134.5t-178 -45.5q-46 0 -89.5 6t-86.5 18v131q34 -17 71 -24.5t84 -7.5q59 0 89 24t30 70q0 30 -21.5 73.5t-66.5 104.5h119z" />
<glyph unicode="&#xb9;" horiz-adv-x="821" d="M156 778h204v611l-223 -41v116l230 39h137v-725h205v-110h-553v110z" />
<glyph unicode="&#xba;" horiz-adv-x="965" d="M139 592h688v-123h-688v123zM483 1520q179 0 282 -110.5t103 -301.5t-103 -300.5t-282 -109.5t-283 110t-104 300q0 191 104 301.5t283 110.5zM483 1405q-105 0 -168 -80.5t-63 -216.5q0 -133 63.5 -213t167.5 -80q105 0 167.5 80t62.5 213q0 137 -62 217t-168 80z" />
<glyph unicode="&#xbb;" horiz-adv-x="1253" d="M193 1059l469 -418v-82l-469 -418v191l301 268l-301 268v191zM627 1059l469 -418v-82l-469 -418v191l301 268l-301 268v191z" />
<glyph unicode="&#xbc;" horiz-adv-x="1985" d="M156 778h204v611l-223 -41v116l230 39h137v-725h205v-110h-553v110zM1640 714l-309 -419h309v419zM1618 835h166v-540h135v-109h-135v-186h-144v186h-414v121zM1378 1520h160l-932 -1549h-160z" />
<glyph unicode="&#xbd;" horiz-adv-x="1985" d="M156 778h204v611l-223 -41v116l230 39h137v-725h205v-110h-553v110zM1431 114h424v-114h-598v110q34 31 97 87q344 305 344 399q0 66 -52 106.5t-137 40.5q-52 0 -113 -17.5t-133 -52.5v123q77 28 143.5 42t123.5 14q145 0 232 -66t87 -174q0 -139 -331 -423 q-56 -48 -87 -75zM1378 1520h160l-932 -1549h-160z" />
<glyph unicode="&#xbe;" horiz-adv-x="1985" d="M524 1120q92 -18 142.5 -72.5t50.5 -136.5q0 -124 -95 -191t-272 -67q-57 0 -119.5 10.5t-132.5 30.5v121q52 -27 111.5 -40t126.5 -13q109 0 169 39.5t60 109.5q0 74 -55.5 112t-163.5 38h-86v108h94q94 0 142.5 31.5t48.5 91.5q0 58 -50 88.5t-145 30.5q-40 0 -91 -9 t-132 -32v115q73 17 137 26t119 9q144 0 228.5 -59t84.5 -158q0 -69 -45 -117t-127 -66zM1640 714l-309 -419h309v419zM1618 835h166v-540h135v-109h-135v-186h-144v186h-414v121zM1378 1520h160l-932 -1549h-160z" />
<glyph unicode="&#xbf;" horiz-adv-x="1087" d="M500 1092h190v-156q0 -101 -27.5 -166t-117.5 -152l-90 -88q-58 -53 -83.5 -100t-25.5 -96q0 -89 65.5 -144t174.5 -55q78 0 168 35t186 102v-188q-94 -57 -190 -85t-199 -28q-184 0 -296 97t-112 256q0 76 36.5 144.5t125.5 154.5l88 86q48 47 67 73.5t27 51.5 q7 21 10 51t3 84v123zM696 1239h-202v254h202v-254z" />
<glyph unicode="&#xc0;" horiz-adv-x="1401" d="M700 1294l-274 -743h549zM586 1493h229l569 -1493h-210l-136 383h-673l-136 -383h-213zM643 1899l196 -264h-153l-230 264h187z" />
<glyph unicode="&#xc1;" horiz-adv-x="1401" d="M700 1294l-274 -743h549zM586 1493h229l569 -1493h-210l-136 383h-673l-136 -383h-213zM755 1899h185l-228 -264h-153z" />
<glyph unicode="&#xc2;" horiz-adv-x="1401" d="M700 1294l-274 -743h549zM586 1493h229l569 -1493h-210l-136 383h-673l-136 -383h-213zM606 1901h188l211 -266h-139l-166 178l-166 -178h-139z" />
<glyph unicode="&#xc3;" horiz-adv-x="1401" d="M700 1294l-274 -743h549zM586 1493h229l569 -1493h-210l-136 383h-673l-136 -383h-213zM696 1710l-57 33q-25 14 -40.5 19.5t-27.5 5.5q-36 0 -56 -25t-20 -70v-6h-125q0 101 51.5 160t137.5 59q36 0 66.5 -8t78.5 -35l57 -30q23 -13 40 -19t32 -6q32 0 52 25.5t20 66.5 v6h125q-2 -100 -53.5 -159.5t-135.5 -59.5q-34 0 -63.5 8t-81.5 35z" />
<glyph unicode="&#xc4;" horiz-adv-x="1401" d="M700 1294l-274 -743h549zM586 1493h229l569 -1493h-210l-136 383h-673l-136 -383h-213zM794 1870h203v-203h-203v203zM403 1870h203v-203h-203v203z" />
<glyph unicode="&#xc5;" horiz-adv-x="1401" d="M852 1626q0 63 -44.5 107.5t-107.5 44.5q-64 0 -107.5 -43.5t-43.5 -108.5q0 -63 44 -107t107 -44t107.5 44t44.5 107zM700 1294l-272 -743h545zM549 1397q-61 41 -92 98.5t-31 130.5q0 115 79.5 195t194.5 80q114 0 194.5 -80.5t80.5 -194.5q0 -70 -31.5 -129 t-91.5 -100l532 -1397h-210l-136 383h-673l-136 -383h-213z" />
<glyph unicode="&#xc6;" horiz-adv-x="1995" d="M1845 1493v-170h-741v-442h711v-170h-711v-541h760v-170h-963v383h-528l-160 -383h-205l625 1493h1212zM772 1335l-330 -784h459v784h-129z" />
<glyph unicode="&#xc7;" horiz-adv-x="1430" d="M1319 1378v-213q-102 95 -217.5 142t-245.5 47q-256 0 -392 -156.5t-136 -452.5q0 -295 136 -451.5t392 -156.5q130 0 245.5 47t217.5 142v-211q-106 -72 -224.5 -108t-250.5 -36q-339 0 -534 207.5t-195 566.5q0 360 195 567.5t534 207.5q134 0 252.5 -35.5 t222.5 -106.5zM897 0q55 -62 82 -114.5t27 -100.5q0 -89 -60 -134.5t-178 -45.5q-46 0 -89.5 6t-86.5 18v131q34 -17 71 -24.5t84 -7.5q59 0 89 24t30 70q0 30 -21.5 73.5t-66.5 104.5h119z" />
<glyph unicode="&#xc8;" horiz-adv-x="1294" d="M201 1493h944v-170h-742v-442h711v-170h-711v-541h760v-170h-962v1493zM613 1899l196 -264h-153l-230 264h187z" />
<glyph unicode="&#xc9;" horiz-adv-x="1294" d="M201 1493h944v-170h-742v-442h711v-170h-711v-541h760v-170h-962v1493zM725 1899h185l-228 -264h-153z" />
<glyph unicode="&#xca;" horiz-adv-x="1294" d="M201 1493h944v-170h-742v-442h711v-170h-711v-541h760v-170h-962v1493zM576 1901h188l211 -266h-139l-166 178l-166 -178h-139z" />
<glyph unicode="&#xcb;" horiz-adv-x="1294" d="M201 1493h944v-170h-742v-442h711v-170h-711v-541h760v-170h-962v1493zM764 1870h203v-203h-203v203zM373 1870h203v-203h-203v203z" />
<glyph unicode="&#xcc;" horiz-adv-x="757" d="M198 1495h362v-125h-80v-1246h80l-1 -124h-361v124h80v1248h-80v123zM323 1899l196 -264h-153l-230 264h187z" />
<glyph unicode="&#xcd;" horiz-adv-x="757" d="M198 1495h362v-125h-80v-1246h80l-1 -124h-361v124h80v1248h-80v123zM435 1899h185l-228 -264h-153z" />
<glyph unicode="&#xce;" horiz-adv-x="757" d="M198 1495h362v-125h-80v-1246h80l-1 -124h-361v124h80v1248h-80v123zM286 1901h188l211 -266h-139l-166 178l-166 -178h-139z" />
<glyph unicode="&#xcf;" horiz-adv-x="757" d="M198 1495h362v-125h-80v-1246h80l-1 -124h-361v124h80v1248h-80v123zM474 1870h203v-203h-203v203zM83 1870h203v-203h-203v203z" />
<glyph unicode="&#xd0;" horiz-adv-x="1587" d="M211 1493h416q433 0 636 -180.5t203 -564.5q0 -386 -203.5 -567t-635.5 -181h-416v700h-201v144h201v649zM414 1327v-483h336v-144h-336v-534h243q309 0 452.5 140t143.5 442q0 300 -143.5 439.5t-452.5 139.5h-243z" />
<glyph unicode="&#xd1;" horiz-adv-x="1532" d="M201 1493h272l662 -1249v1249h196v-1493h-272l-662 1249v-1249h-196v1493zM762 1710l-57 33q-25 14 -40.5 19.5t-27.5 5.5q-36 0 -56 -25t-20 -70v-6h-125q0 101 51.5 160t137.5 59q36 0 66.5 -8t78.5 -35l57 -30q23 -13 40 -19t32 -6q32 0 52 25.5t20 66.5v6h125 q-2 -100 -53.5 -159.5t-135.5 -59.5q-34 0 -63.5 8t-81.5 35z" />
<glyph unicode="&#xd2;" horiz-adv-x="1612" d="M807 1356q-220 0 -349.5 -164t-129.5 -447q0 -282 129.5 -446t349.5 -164t348.5 164t128.5 446q0 283 -128.5 447t-348.5 164zM807 1520q314 0 502 -210.5t188 -564.5q0 -353 -188 -563.5t-502 -210.5q-315 0 -503.5 210t-188.5 564t188.5 564.5t503.5 210.5zM750 1899 l196 -264h-153l-230 264h187z" />
<glyph unicode="&#xd3;" horiz-adv-x="1612" d="M807 1356q-220 0 -349.5 -164t-129.5 -447q0 -282 129.5 -446t349.5 -164t348.5 164t128.5 446q0 283 -128.5 447t-348.5 164zM807 1520q314 0 502 -210.5t188 -564.5q0 -353 -188 -563.5t-502 -210.5q-315 0 -503.5 210t-188.5 564t188.5 564.5t503.5 210.5zM862 1899 h185l-228 -264h-153z" />
<glyph unicode="&#xd4;" horiz-adv-x="1612" d="M807 1356q-220 0 -349.5 -164t-129.5 -447q0 -282 129.5 -446t349.5 -164t348.5 164t128.5 446q0 283 -128.5 447t-348.5 164zM807 1520q314 0 502 -210.5t188 -564.5q0 -353 -188 -563.5t-502 -210.5q-315 0 -503.5 210t-188.5 564t188.5 564.5t503.5 210.5zM713 1901 h188l211 -266h-139l-166 178l-166 -178h-139z" />
<glyph unicode="&#xd5;" horiz-adv-x="1612" d="M807 1356q-220 0 -349.5 -164t-129.5 -447q0 -282 129.5 -446t349.5 -164t348.5 164t128.5 446q0 283 -128.5 447t-348.5 164zM807 1520q314 0 502 -210.5t188 -564.5q0 -353 -188 -563.5t-502 -210.5q-315 0 -503.5 210t-188.5 564t188.5 564.5t503.5 210.5zM803 1710 l-57 33q-25 14 -40.5 19.5t-27.5 5.5q-36 0 -56 -25t-20 -70v-6h-125q0 101 51.5 160t137.5 59q36 0 66.5 -8t78.5 -35l57 -30q23 -13 40 -19t32 -6q32 0 52 25.5t20 66.5v6h125q-2 -100 -53.5 -159.5t-135.5 -59.5q-34 0 -63.5 8t-81.5 35z" />
<glyph unicode="&#xd6;" horiz-adv-x="1612" d="M807 1356q-220 0 -349.5 -164t-129.5 -447q0 -282 129.5 -446t349.5 -164t348.5 164t128.5 446q0 283 -128.5 447t-348.5 164zM807 1520q314 0 502 -210.5t188 -564.5q0 -353 -188 -563.5t-502 -210.5q-315 0 -503.5 210t-188.5 564t188.5 564.5t503.5 210.5zM901 1870 h203v-203h-203v203zM510 1870h203v-203h-203v203z" />
<glyph unicode="&#xd7;" d="M1436 1100l-457 -459l457 -457l-119 -121l-459 459l-459 -459l-118 121l456 457l-456 459l118 121l459 -459l459 459z" />
<glyph unicode="&#xd8;" horiz-adv-x="1612" d="M1206 1112l-717 -846q62 -64 142.5 -97.5t175.5 -33.5q220 0 348.5 164t128.5 446q0 112 -19.5 204t-58.5 163zM1124 1225q-61 64 -141.5 97.5t-175.5 33.5q-220 0 -349.5 -164t-129.5 -447q0 -112 19.5 -206t58.5 -162zM272 219q-78 102 -117.5 234t-39.5 292 q0 354 188.5 564.5t503.5 210.5q130 0 240.5 -38.5t197.5 -113.5l162 191l102 -89l-170 -198q78 -103 118 -236t40 -291q0 -353 -188 -563.5t-502 -210.5q-128 0 -238.5 37.5t-201.5 112.5l-162 -191l-103 88z" />
<glyph unicode="&#xd9;" horiz-adv-x="1499" d="M178 1493h203v-907q0 -240 87 -345.5t282 -105.5q194 0 281 105.5t87 345.5v907h203v-932q0 -292 -144.5 -441t-426.5 -149q-283 0 -427.5 149t-144.5 441v932zM693 1899l196 -264h-153l-230 264h187z" />
<glyph unicode="&#xda;" horiz-adv-x="1499" d="M178 1493h203v-907q0 -240 87 -345.5t282 -105.5q194 0 281 105.5t87 345.5v907h203v-932q0 -292 -144.5 -441t-426.5 -149q-283 0 -427.5 149t-144.5 441v932zM805 1899h185l-228 -264h-153z" />
<glyph unicode="&#xdb;" horiz-adv-x="1499" d="M178 1493h203v-907q0 -240 87 -345.5t282 -105.5q194 0 281 105.5t87 345.5v907h203v-932q0 -292 -144.5 -441t-426.5 -149q-283 0 -427.5 149t-144.5 441v932zM656 1901h188l211 -266h-139l-166 178l-166 -178h-139z" />
<glyph unicode="&#xdc;" horiz-adv-x="1499" d="M178 1493h203v-907q0 -240 87 -345.5t282 -105.5q194 0 281 105.5t87 345.5v907h203v-932q0 -292 -144.5 -441t-426.5 -149q-283 0 -427.5 149t-144.5 441v932zM844 1870h203v-203h-203v203zM453 1870h203v-203h-203v203z" />
<glyph unicode="&#xdd;" horiz-adv-x="1251" d="M-4 1493h217l414 -614l411 614h217l-528 -782v-711h-203v711zM682 1899h185l-228 -264h-153z" />
<glyph unicode="&#xde;" horiz-adv-x="1239" d="M201 1493h202v-264h254q251 0 379.5 -112.5t128.5 -332.5t-128.5 -333t-379.5 -113h-254v-338h-202v1493zM403 1063v-559h254q141 0 218 73t77 207t-76.5 206.5t-218.5 72.5h-254z" />
<glyph unicode="&#xdf;" horiz-adv-x="1290" d="M186 1137q0 200 119.5 309.5t337.5 109.5q208 0 317.5 -116t112.5 -340q-151 -8 -235 -65.5t-84 -153.5q0 -47 29 -87.5t94 -82.5l57 -37q166 -106 214 -177t48 -171q0 -172 -112.5 -263.5t-323.5 -91.5q-64 0 -132 12.5t-141 36.5v164q80 -30 150 -44.5t135 -14.5 q116 0 176 47.5t60 138.5q0 63 -29.5 105t-130.5 104l-92 55q-96 59 -139.5 126.5t-43.5 158.5q0 127 83.5 213t234.5 115q-8 103 -73.5 159t-178.5 56q-130 0 -198 -69.5t-68 -200.5v-1133h-187v1137z" />
<glyph unicode="&#xe0;" horiz-adv-x="1255" d="M702 563q-223 0 -309 -51t-86 -174q0 -98 64.5 -155.5t175.5 -57.5q153 0 245.5 108.5t92.5 288.5v41h-183zM1069 639v-639h-184v170q-63 -102 -157 -150.5t-230 -48.5q-172 0 -273.5 96.5t-101.5 258.5q0 189 126.5 285t377.5 96h258v18q0 127 -83.5 196.5t-234.5 69.5 q-96 0 -187 -23t-175 -69v170q101 39 196 58.5t185 19.5q243 0 363 -126t120 -382zM449 1638l282 -374h-153l-326 374h197z" />
<glyph unicode="&#xe1;" horiz-adv-x="1255" d="M702 563q-223 0 -309 -51t-86 -174q0 -98 64.5 -155.5t175.5 -57.5q153 0 245.5 108.5t92.5 288.5v41h-183zM1069 639v-639h-184v170q-63 -102 -157 -150.5t-230 -48.5q-172 0 -273.5 96.5t-101.5 258.5q0 189 126.5 285t377.5 96h258v18q0 127 -83.5 196.5t-234.5 69.5 q-96 0 -187 -23t-175 -69v170q101 39 196 58.5t185 19.5q243 0 363 -126t120 -382zM733 1638h199l-326 -376h-153z" />
<glyph unicode="&#xe2;" horiz-adv-x="1255" d="M702 563q-223 0 -309 -51t-86 -174q0 -98 64.5 -155.5t175.5 -57.5q153 0 245.5 108.5t92.5 288.5v41h-183zM1069 639v-639h-184v170q-63 -102 -157 -150.5t-230 -48.5q-172 0 -273.5 96.5t-101.5 258.5q0 189 126.5 285t377.5 96h258v18q0 127 -83.5 196.5t-234.5 69.5 q-96 0 -187 -23t-175 -69v170q101 39 196 58.5t185 19.5q243 0 363 -126t120 -382zM520 1638h148l245 -376h-139l-180 245l-180 -245h-139z" />
<glyph unicode="&#xe3;" horiz-adv-x="1255" d="M702 563q-223 0 -309 -51t-86 -174q0 -98 64.5 -155.5t175.5 -57.5q153 0 245.5 108.5t92.5 288.5v41h-183zM1069 639v-639h-184v170q-63 -102 -157 -150.5t-230 -48.5q-172 0 -273.5 96.5t-101.5 258.5q0 189 126.5 285t377.5 96h258v18q0 127 -83.5 196.5t-234.5 69.5 q-96 0 -187 -23t-175 -69v170q101 39 196 58.5t185 19.5q243 0 363 -126t120 -382zM590 1370l-57 55q-22 20 -38.5 29.5t-29.5 9.5q-38 0 -56 -36.5t-20 -118.5h-125q2 135 53 208.5t142 73.5q38 0 70 -14t69 -47l57 -55q22 -20 38.5 -29.5t29.5 -9.5q38 0 56 36.5t20 118.5 h125q-2 -135 -53 -208.5t-142 -73.5q-38 0 -70 14t-69 47z" />
<glyph unicode="&#xe4;" horiz-adv-x="1255" d="M702 563q-223 0 -309 -51t-86 -174q0 -98 64.5 -155.5t175.5 -57.5q153 0 245.5 108.5t92.5 288.5v41h-183zM1069 639v-639h-184v170q-63 -102 -157 -150.5t-230 -48.5q-172 0 -273.5 96.5t-101.5 258.5q0 189 126.5 285t377.5 96h258v18q0 127 -83.5 196.5t-234.5 69.5 q-96 0 -187 -23t-175 -69v170q101 39 196 58.5t185 19.5q243 0 363 -126t120 -382zM688 1552h203v-202h-203v202zM297 1552h203v-202h-203v202z" />
<glyph unicode="&#xe5;" horiz-adv-x="1255" d="M702 563q-223 0 -309 -51t-86 -174q0 -98 64.5 -155.5t175.5 -57.5q153 0 245.5 108.5t92.5 288.5v41h-183zM1069 639v-639h-184v170q-63 -102 -157 -150.5t-230 -48.5q-172 0 -273.5 96.5t-101.5 258.5q0 189 126.5 285t377.5 96h258v18q0 127 -83.5 196.5t-234.5 69.5 q-96 0 -187 -23t-175 -69v170q101 39 196 58.5t185 19.5q243 0 363 -126t120 -382zM746 1524q0 63 -44 107t-108 44q-65 0 -108.5 -43.5t-43.5 -107.5q0 -65 43.5 -108.5t108.5 -43.5q64 0 108 44t44 108zM868 1524q0 -115 -79.5 -195t-194.5 -80t-194.5 80t-79.5 195 t79.5 194.5t194.5 79.5t194.5 -79.5t79.5 -194.5z" />
<glyph unicode="&#xe6;" horiz-adv-x="2011" d="M1718 660q-1 151 -83.5 241t-219.5 90q-153 0 -245.5 -87t-106.5 -245zM995 963q74 90 180 137t238 47q226 0 358 -145.5t132 -395.5v-90h-846q12 -191 114 -291t285 -100q104 0 204 26.5t200 79.5v-174q-100 -42 -204 -64t-210 -22q-167 0 -291 60.5t-201 179.5 q-73 -120 -181 -180t-251 -60q-189 0 -294 93.5t-105 261.5q0 189 126.5 285t377.5 96h258v18q0 127 -83.5 196.5t-234.5 69.5q-96 0 -187 -23t-175 -69v170q101 39 196 58.5t185 19.5q142 0 248.5 -48t160.5 -136zM702 563q-223 0 -309 -51t-86 -174q0 -98 64.5 -155.5 t175.5 -57.5q153 0 245.5 108.5t92.5 288.5v41h-183z" />
<glyph unicode="&#xe7;" horiz-adv-x="1126" d="M999 1077v-172q-78 43 -156.5 64.5t-158.5 21.5q-179 0 -278 -113.5t-99 -318.5t99 -318.5t278 -113.5q80 0 158.5 21.5t156.5 64.5v-170q-77 -36 -159.5 -54t-175.5 -18q-253 0 -402 159t-149 429q0 274 150.5 431t412.5 157q85 0 166 -17.5t157 -52.5zM739 0 q55 -62 82 -114.5t27 -100.5q0 -89 -60 -134.5t-178 -45.5q-46 0 -89.5 6t-86.5 18v131q34 -17 71 -24.5t84 -7.5q59 0 89 24t30 70q0 30 -21.5 73.5t-66.5 104.5h119z" />
<glyph unicode="&#xe8;" horiz-adv-x="1260" d="M1151 606v-90h-846q12 -190 114.5 -289.5t285.5 -99.5q106 0 205.5 26t197.5 78v-174q-99 -42 -203 -64t-211 -22q-268 0 -424.5 156t-156.5 422q0 275 148.5 436.5t400.5 161.5q226 0 357.5 -145.5t131.5 -395.5zM967 660q-2 151 -84.5 241t-218.5 90q-154 0 -246.5 -87 t-106.5 -245zM506 1638l282 -374h-153l-326 374h197z" />
<glyph unicode="&#xe9;" horiz-adv-x="1260" d="M1151 606v-90h-846q12 -190 114.5 -289.5t285.5 -99.5q106 0 205.5 26t197.5 78v-174q-99 -42 -203 -64t-211 -22q-268 0 -424.5 156t-156.5 422q0 275 148.5 436.5t400.5 161.5q226 0 357.5 -145.5t131.5 -395.5zM967 660q-2 151 -84.5 241t-218.5 90q-154 0 -246.5 -87 t-106.5 -245zM790 1638h199l-326 -376h-153z" />
<glyph unicode="&#xea;" horiz-adv-x="1260" d="M1151 606v-90h-846q12 -190 114.5 -289.5t285.5 -99.5q106 0 205.5 26t197.5 78v-174q-99 -42 -203 -64t-211 -22q-268 0 -424.5 156t-156.5 422q0 275 148.5 436.5t400.5 161.5q226 0 357.5 -145.5t131.5 -395.5zM967 660q-2 151 -84.5 241t-218.5 90q-154 0 -246.5 -87 t-106.5 -245zM577 1638h148l245 -376h-139l-180 245l-180 -245h-139z" />
<glyph unicode="&#xeb;" horiz-adv-x="1260" d="M1151 606v-90h-846q12 -190 114.5 -289.5t285.5 -99.5q106 0 205.5 26t197.5 78v-174q-99 -42 -203 -64t-211 -22q-268 0 -424.5 156t-156.5 422q0 275 148.5 436.5t400.5 161.5q226 0 357.5 -145.5t131.5 -395.5zM967 660q-2 151 -84.5 241t-218.5 90q-154 0 -246.5 -87 t-106.5 -245zM745 1552h203v-202h-203v202zM354 1552h203v-202h-203v202z" />
<glyph unicode="&#xec;" horiz-adv-x="569" d="M140 1638l282 -374h-153l-326 374h197zM193 1120h184v-1120h-184v1120zM285 1147z" />
<glyph unicode="&#xed;" horiz-adv-x="569" d="M424 1638h199l-326 -376h-153zM193 1120h184v-1120h-184v1120zM285 1147z" />
<glyph unicode="&#xee;" horiz-adv-x="569" d="M193 1120h184v-1120h-184v1120zM285 1147zM211 1638h148l245 -376h-139l-180 245l-180 -245h-139z" />
<glyph unicode="&#xef;" horiz-adv-x="569" d="M193 1120h184v-1120h-184v1120zM285 1147zM379 1552h203v-202h-203v202zM-12 1552h203v-202h-203v202z" />
<glyph unicode="&#xf0;" horiz-adv-x="1253" d="M838 915q-50 17 -94 25t-85 8q-167 0 -259.5 -108t-92.5 -303q0 -188 87 -299t233 -111q145 0 232 111t87 299q0 122 -27 216t-81 162zM901 1141q126 -143 183 -287t57 -317q0 -255 -142 -410.5t-372 -155.5q-231 0 -372.5 155.5t-141.5 410.5q0 250 138 405.5t359 155.5 q18 0 44 -2.5t68 -7.5l-159 180l-319 -107l-33 99l281 92l-181 204h228l127 -145l333 111l33 -97l-295 -98z" />
<glyph unicode="&#xf1;" horiz-adv-x="1298" d="M1124 676v-676h-184v670q0 159 -62 238t-186 79q-149 0 -235 -95t-86 -259v-633h-185v1120h185v-174q66 101 155.5 151t206.5 50q193 0 292 -119.5t99 -351.5zM660 1370l-57 55q-22 20 -38.5 29.5t-29.5 9.5q-38 0 -56 -36.5t-20 -118.5h-125q2 135 53 208.5t142 73.5 q38 0 70 -14t69 -47l57 -55q22 -20 38.5 -29.5t29.5 -9.5q38 0 56 36.5t20 118.5h125q-2 -135 -53 -208.5t-142 -73.5q-38 0 -70 14t-69 47z" />
<glyph unicode="&#xf2;" horiz-adv-x="1253" d="M627 991q-148 0 -234 -115.5t-86 -316.5t85.5 -316.5t234.5 -115.5q147 0 233 116t86 316q0 199 -86 315.5t-233 116.5zM627 1147q240 0 377 -156t137 -432q0 -275 -137 -431.5t-377 -156.5q-241 0 -377.5 156.5t-136.5 431.5q0 276 136.5 432t377.5 156zM482 1638 l282 -374h-153l-326 374h197z" />
<glyph unicode="&#xf3;" horiz-adv-x="1253" d="M627 991q-148 0 -234 -115.5t-86 -316.5t85.5 -316.5t234.5 -115.5q147 0 233 116t86 316q0 199 -86 315.5t-233 116.5zM627 1147q240 0 377 -156t137 -432q0 -275 -137 -431.5t-377 -156.5q-241 0 -377.5 156.5t-136.5 431.5q0 276 136.5 432t377.5 156zM766 1638h199 l-326 -376h-153z" />
<glyph unicode="&#xf4;" horiz-adv-x="1253" d="M627 991q-148 0 -234 -115.5t-86 -316.5t85.5 -316.5t234.5 -115.5q147 0 233 116t86 316q0 199 -86 315.5t-233 116.5zM627 1147q240 0 377 -156t137 -432q0 -275 -137 -431.5t-377 -156.5q-241 0 -377.5 156.5t-136.5 431.5q0 276 136.5 432t377.5 156zM553 1638h148 l245 -376h-139l-180 245l-180 -245h-139z" />
<glyph unicode="&#xf5;" horiz-adv-x="1253" d="M627 991q-148 0 -234 -115.5t-86 -316.5t85.5 -316.5t234.5 -115.5q147 0 233 116t86 316q0 199 -86 315.5t-233 116.5zM627 1147q240 0 377 -156t137 -432q0 -275 -137 -431.5t-377 -156.5q-241 0 -377.5 156.5t-136.5 431.5q0 276 136.5 432t377.5 156zM623 1370 l-57 55q-22 20 -38.5 29.5t-29.5 9.5q-38 0 -56 -36.5t-20 -118.5h-125q2 135 53 208.5t142 73.5q38 0 70 -14t69 -47l57 -55q22 -20 38.5 -29.5t29.5 -9.5q38 0 56 36.5t20 118.5h125q-2 -135 -53 -208.5t-142 -73.5q-38 0 -70 14t-69 47z" />
<glyph unicode="&#xf6;" horiz-adv-x="1253" d="M627 991q-148 0 -234 -115.5t-86 -316.5t85.5 -316.5t234.5 -115.5q147 0 233 116t86 316q0 199 -86 315.5t-233 116.5zM627 1147q240 0 377 -156t137 -432q0 -275 -137 -431.5t-377 -156.5q-241 0 -377.5 156.5t-136.5 431.5q0 276 136.5 432t377.5 156zM721 1552h203 v-202h-203v202zM330 1552h203v-202h-203v202z" />
<glyph unicode="&#xf7;" d="M735 1135h246v-246h-246v246zM735 395h246v-245h-246v245zM217 727h1282v-170h-1282v170z" />
<glyph unicode="&#xf8;" horiz-adv-x="1253" d="M905 801l-487 -592q41 -42 92.5 -62t116.5 -20q147 0 233 116t86 316q0 79 -10 137.5t-31 104.5zM834 909q-42 41 -93.5 61.5t-113.5 20.5q-151 0 -235.5 -117.5t-84.5 -328.5q0 -72 9.5 -127t29.5 -101zM221 166q-54 77 -81 175.5t-27 217.5q0 276 136.5 432t377.5 156 q93 0 172.5 -25.5t146.5 -77.5l139 168l95 -79l-146 -179q53 -77 80 -176t27 -219q0 -275 -137 -431.5t-377 -156.5q-96 0 -176.5 26t-143.5 77l-139 -168l-96 78z" />
<glyph unicode="&#xf9;" horiz-adv-x="1298" d="M174 442v678h184v-671q0 -159 62 -238.5t186 -79.5q149 0 235.5 95t86.5 259v635h184v-1120h-184v172q-67 -102 -155.5 -151.5t-205.5 -49.5q-193 0 -293 120t-100 351zM637 1147zM490 1638l282 -374h-153l-326 374h197z" />
<glyph unicode="&#xfa;" horiz-adv-x="1298" d="M174 442v678h184v-671q0 -159 62 -238.5t186 -79.5q149 0 235.5 95t86.5 259v635h184v-1120h-184v172q-67 -102 -155.5 -151.5t-205.5 -49.5q-193 0 -293 120t-100 351zM637 1147zM774 1638h199l-326 -376h-153z" />
<glyph unicode="&#xfb;" horiz-adv-x="1298" d="M174 442v678h184v-671q0 -159 62 -238.5t186 -79.5q149 0 235.5 95t86.5 259v635h184v-1120h-184v172q-67 -102 -155.5 -151.5t-205.5 -49.5q-193 0 -293 120t-100 351zM637 1147zM561 1638h148l245 -376h-139l-180 245l-180 -245h-139z" />
<glyph unicode="&#xfc;" horiz-adv-x="1298" d="M174 442v678h184v-671q0 -159 62 -238.5t186 -79.5q149 0 235.5 95t86.5 259v635h184v-1120h-184v172q-67 -102 -155.5 -151.5t-205.5 -49.5q-193 0 -293 120t-100 351zM637 1147zM729 1552h203v-202h-203v202zM338 1552h203v-202h-203v202z" />
<glyph unicode="&#xfd;" horiz-adv-x="1212" d="M659 -104q-78 -200 -152 -261t-198 -61h-147v154h108q76 0 118 36t93 170l33 84l-453 1102h195l350 -876l350 876h195zM745 1638h199l-326 -376h-153z" />
<glyph unicode="&#xfe;" horiz-adv-x="1300" d="M371 168v-594h-185v1982h185v-606q58 100 146.5 148.5t211.5 48.5q204 0 331.5 -162t127.5 -426t-127.5 -426t-331.5 -162q-123 0 -211.5 48.5t-146.5 148.5zM997 559q0 203 -83.5 318.5t-229.5 115.5t-229.5 -115.5t-83.5 -318.5t83.5 -318.5t229.5 -115.5t229.5 115.5 t83.5 318.5z" />
<glyph unicode="&#xff;" horiz-adv-x="1212" d="M659 -104q-78 -200 -152 -261t-198 -61h-147v154h108q76 0 118 36t93 170l33 84l-453 1102h195l350 -876l350 876h195zM700 1552h203v-202h-203v202zM309 1552h203v-202h-203v202z" />
<glyph unicode="&#x100;" horiz-adv-x="1401" d="M401 1841h598v-148h-598v148zM700 1294l-274 -743h549zM586 1493h229l569 -1493h-210l-136 383h-673l-136 -383h-213z" />
<glyph unicode="&#x101;" horiz-adv-x="1255" d="M287 1526h598v-148h-598v148zM702 563q-223 0 -309 -51t-86 -174q0 -98 64.5 -155.5t175.5 -57.5q153 0 245.5 108.5t92.5 288.5v41h-183zM1069 639v-639h-184v170q-63 -102 -157 -150.5t-230 -48.5q-172 0 -273.5 96.5t-101.5 258.5q0 189 126.5 285t377.5 96h258v18 q0 127 -83.5 196.5t-234.5 69.5q-96 0 -187 -23t-175 -69v170q101 39 196 58.5t185 19.5q243 0 363 -126t120 -382z" />
<glyph unicode="&#x102;" horiz-adv-x="1401" d="M405 1938h118q11 -75 59.5 -112.5t135.5 -37.5q86 0 134 37t61 113h118q-10 -143 -89 -215t-224 -72t-224 72t-89 215zM700 1294l-274 -743h549zM586 1493h229l569 -1493h-210l-136 383h-673l-136 -383h-213z" />
<glyph unicode="&#x103;" horiz-adv-x="1255" d="M278 1567h118q11 -75 59.5 -112.5t135.5 -37.5q86 0 134 37t61 113h118q-10 -143 -89 -215t-224 -72t-224 72t-89 215zM702 563q-223 0 -309 -51t-86 -174q0 -98 64.5 -155.5t175.5 -57.5q153 0 245.5 108.5t92.5 288.5v41h-183zM1069 639v-639h-184v170 q-63 -102 -157 -150.5t-230 -48.5q-172 0 -273.5 96.5t-101.5 258.5q0 189 126.5 285t377.5 96h258v18q0 127 -83.5 196.5t-234.5 69.5q-96 0 -187 -23t-175 -69v170q101 39 196 58.5t185 19.5q243 0 363 -126t120 -382z" />
<glyph unicode="&#x104;" horiz-adv-x="1401" d="M700 1294l-274 -743h549zM586 1493h229l569 -1493h-210l-136 383h-673l-136 -383h-213zM1180 0h119q-45 -61 -66.5 -105t-21.5 -75q0 -46 27.5 -69t81.5 -23q32 0 63 7.5t62 22.5v-133q-38 -10 -72 -15t-64 -5q-122 0 -179.5 43.5t-57.5 136.5q0 48 26.5 100.5 t81.5 114.5z" />
</font>
</defs>
</svg>
